Loading...
Error

Рыбалка в Хабаровском Крае. Выпуск № 11 (Александр Белов) [2008 г., документальный, рыбалка, DVDRip]

Статистика раздачи
Размер:  1,37 GB   |    Зарегистрирован:  3 месяца 29 дней   |    Скачан:  1 раз

Полного источника не было: 3 месяца 28 дней

Сидов:  0  |  0 KB/s  ]   Личеров:  0  |  0 KB/s  ]

* - сиды/пиры с внешних источников

   
 
Автор Сообщение

ARI71 Пол:Муж

06-Авг-2016 10:54

Рыбалка в Хабаровском Крае. Выпуск № 11


Год выпуска: 2008
Жанр: документальный, рыбалка
Страна: Россия ООО "Амур-Эко"
Режиссер: Александр Белов
Сюжет фильма:
Хабаровский край - это один из немногих уголков нашей страны с чистым воздухом, девственными лесами и прозрачными реками, где водится большое количество разнообразных рыб, имеющих интерес у рыболовов. Не стоит забывать, что Хабаровский край это не только суша, но и еще морское побережье, где развита морская рыбалка. Несомненно, Хабаровский край представляет огромный интерес не только у местных рыболовов, но и для рыболовов с других регионов и стран.
Качество видео: DVDRip

Продолжительность: 01:32:21
Формат: AVI
Видео: XviD, 704x512, ~1916 kbps
Аудио: русский, (оригинал), MP3 2.0, ~192.00 kbps

Код:

Общее
Полное имя : D:\Ribalka.v.Habarovskom.krae.Vipusk.11.2008.XviD.DVDRip.*другой трекер*.avi
Формат : AVI
Формат/Информация : Audio Video Interleave
Размер файла : 1,37 Гбайт
Продолжительность : 1 ч. 32 м.
Общий поток : 2118 Кбит/сек
Программа кодирования : FairUse Wizard - http://fairusewizard.com
Библиотека кодирования : The best and REALLY easy backup tool

Видео
Идентификатор : 0
Формат : MPEG-4 Visual
Профиль формата : Advanced Simple@L5
Параметр BVOP формата : 1
Параметр QPel формата : Нет
Параметр GMC формата : Без точки перехода
Параметр матрицы формата : Default (H.263)
Режим смешивания : Сжатый битовый поток
Идентификатор кодека : XVID
Идентификатор кодека/Подсказка : XviD
Продолжительность : 1 ч. 32 м.
Битрейт : 1916 Кбит/сек
Ширина : 704 пикселя
Высота : 512 пикселей
Соотношение сторон : 1,375
Частота кадров : 25,000 кадров/сек
Цветовое пространство : YUV
Субдискретизация насыщенности : 4:2:0
Битовая глубина : 8 бит
Тип развёртки : Прогрессивная
Метод сжатия : С потерями
Бит/(Пиксели*Кадры) : 0.213
Размер потока : 1,24 Гбайт (90%)
Библиотека кодирования : XviD 1.1.0 (UTC 2005-11-22)

Аудио
Идентификатор : 1
Формат : MPEG Audio
Версия формата : Version 1
Профиль формата : Layer 3
Режим : Joint stereo
Расширение режима : MS Stereo
Идентификатор кодека : 55
Идентификатор кодека/Подсказка : MP3
Продолжительность : 1 ч. 32 м.
Вид битрейта : Постоянный
Битрейт : 192 Кбит/сек
Каналы : 2 канала
Частота : 48,0 КГц
Метод сжатия : С потерями
Размер потока : 127 Мбайт (9%)
Выравнивание : Соединение по промежуткам
Продолжительность промежутка : 40 мс. (1,00 видеокадр)
Время предзагрузки промежутка : 504 мс.
Библиотека кодирования : LAME3.97b
Настройки программы : -m j -V 4 -q 2 -lowpass 18.6 -b 192
Релиз группы:

picpicpicpicpic
Для увеличения картинки щелкните мышкой по превью

Этот торрент недоступен для скачивания без регистрации, однако доступен по публичной magnet-ссылке (источники с публичных трекеров). Перед использованием ссылки прочтите, пожалуйста Пользовательское соглашение, а также как можно дольше оставайтесь на раздаче! Для того, чтобы скачать сам торрент-файл (который видит больше источников), а также для того, чтобы поблагодарить релизера, вам необходимо зарегистрироваться. Если регистрироваться лень - вы можете также попробовать скачать релиз по нашим партнерским ссылкам ниже.

[underverse.su].t68686.torrent
Трекер: Зарегистрирован   [ 06.08.2016 10:54 ]  

Статус: проверено (by makkol at 06.08.2016 13:52)
Поблагодарили: пока никто не поблагодарил...
Тип торрента: публичный - доступные источники с открытых трекеров: 
Размер: 1,37 GB (занимает 0,31 DVDR, для записи нужно 1 болванка DVDR/RW)
 
 
Похожие темы
Форум Тема Автор Торрент Отв. Посл. сооб.
Рыбалка Рыбалка в стиле "Олд Скул" (10 выпусков) / (Максим Сальник) [2015-2016 г., документальный, познавательный, рыбалка, WEBRip] ARI71
3 | 0

0 | 402

0

16.09.2016 04:47

Рыбалка Рыбалка в стиле "Олд Скул" (1-7 серии из 7) [2015 г., документальный, рыбалка, WEBRip] ARI71
2 | 2

0 | 753

15

13.02.2016 20:36

Рыбалка Рыбалка в стиле "Олд Скул". (Рыбалка осенью в устье Ворсклы) [2015 г., документальный, рыбалка, WEBRip] ARI71
3 | 0

0 | 461

2

25.02.2016 12:12

Архив Рыбалка в открытом море [2009 г., Simulator] RUS GanibalKing
0 | 0

3 | 2245

31

05.11.2011 14:45


Яндекс.Метрика powered by Sphinx


В Н И М А Н И Е
Сайт не распространяет и не хранит электронные версии произведений, а лишь бесплатно и без коммерческой выгоды (не требуя взамен платы,
SMS и т.д.) предоставляет доступ к создаваемому пользователями каталогу ссылок на торрент-файлы, которые содержат только списки хеш-сумм.
Убедительная просьба с жалобами обращаться напрямую к пользователю, разместившему торрент файл.

Вверх