Loading...
Error

Змеиное подполье / Snake Underworld (Лаура Фревел) [2010 г., документальный, змеи, серпентология, HDTVRip] VO

Статистика раздачи
Размер:  688 MB   |    Зарегистрирован:  4 месяца 4 дня   |    Скачан:  1 раз

Полного источника не было: 4 месяца 3 дня

Сидов:  0  |  0 KB/s  ]   Личеров:  0  |  0 KB/s  ]

* - сиды/пиры с внешних источников

   
 
Автор Сообщение

ARI71 Пол:Муж

06-Авг-2016 10:36

Змеиное подполье / Snake Underworld


Год выпуска: 2010
Жанр: документальный, змеи, серпентология
Страна: США National Geographic Television
Режиссер: Лаура Фревел
В ролях: Генри Роллинс
Сюжет фильма:
Он любит тяжелый рок, грандиозные идеи и змей. У него на теле три татуировки с изображением змей, так - как увлечён серпентологией. Его путь лежит в мало изученный мир одержимости змеями. Тут и те, кто занимается контрабандой, и те, кто впрыскивает себе яд от самой ядовитой чёрной мамбы. Знакомьтесь, его зовут Генри Роллинс, он проникает в змеиное подполье, тайный мир увлечения змеями.
Качество видео: HDTVRip

Продолжительность: 00:44:59
Формат: AVI
Видео: XviD, 720x400, ~1903 kbps
Аудио: русский, одноголосый (профессиональный), AC3 2.0, ~224.00 kbps

Код:

Общее
Полное имя : D:\Snake.Underworld.2010.HDTVRip.avi
Формат : AVI
Формат/Информация : Audio Video Interleave
Размер файла : 688 Мбайт
Продолжительность : 44 м.
Общий поток : 2137 Кбит/сек
Программа кодирования : VirtualDubMod 1.5.10.3 | www.virtualdub-fr.org || (build 2550/release)
Библиотека кодирования : VirtualDubMod build 2550/release

Видео
Идентификатор : 0
Формат : MPEG-4 Visual
Профиль формата : Advanced Simple@L5
Параметр BVOP формата : 3
Параметр QPel формата : Нет
Параметр GMC формата : Без точки перехода
Параметр матрицы формата : Default (MPEG)
Идентификатор кодека : XVID
Идентификатор кодека/Подсказка : XviD
Продолжительность : 44 м.
Битрейт : 1903 Кбит/сек
Ширина : 720 пикселей
Высота : 400 пикселей
Соотношение сторон : 16:9
Частота кадров : 25,000 кадров/сек
Цветовое пространство : YUV
Субдискретизация насыщенности : 4:2:0
Битовая глубина : 8 бит
Тип развёртки : Прогрессивная
Метод сжатия : С потерями
Бит/(Пиксели*Кадры) : 0.264
Размер потока : 613 Мбайт (89%)
Библиотека кодирования : XviD 1.2.1 (UTC 2008-12-04)

Аудио
Идентификатор : 1
Формат : AC-3
Формат/Информация : Audio Coding 3
Расширение режима : CM (complete main)
Параметр Endianness формата : Big
Идентификатор кодека : 2000
Продолжительность : 44 м.
Вид битрейта : Постоянный
Битрейт : 224 Кбит/сек
Каналы : 2 канала
Расположение каналов : Front: L R
Частота : 48,0 КГц
Частота кадров : 31,250 кадров/сек (1536 spf)
Метод сжатия : С потерями
Размер потока : 72,1 Мбайт (10%)
Выравнивание : Разделение по промежуткам
Продолжительность промежутка : 40 мс. (1,00 видеокадр)
Время предзагрузки промежутка : 500 мс.
picpicpicpicpic
Для увеличения картинки щелкните мышкой по превью

Этот торрент недоступен для скачивания без регистрации, однако доступен по публичной magnet-ссылке (источники с публичных трекеров). Перед использованием ссылки прочтите, пожалуйста Пользовательское соглашение, а также как можно дольше оставайтесь на раздаче! Для того, чтобы скачать сам торрент-файл (который видит больше источников), а также для того, чтобы поблагодарить релизера, вам необходимо зарегистрироваться. Если регистрироваться лень - вы можете также попробовать скачать релиз по нашим партнерским ссылкам ниже.

[underverse.su].t68683.torrent
Трекер: Зарегистрирован   [ 06.08.2016 10:36 ]  

Статус: проверено (by makkol at 06.08.2016 10:44)
Поблагодарили: пока никто не поблагодарил...
Тип торрента: публичный - доступные источники с открытых трекеров: 
Размер: 688 MB (занимает 0,15 DVDR, для записи нужно 1 болванка DVDR/RW)
 
 

Яндекс.Метрика powered by Sphinx


В Н И М А Н И Е
Сайт не распространяет и не хранит электронные версии произведений, а лишь бесплатно и без коммерческой выгоды (не требуя взамен платы,
SMS и т.д.) предоставляет доступ к создаваемому пользователями каталогу ссылок на торрент-файлы, которые содержат только списки хеш-сумм.
Убедительная просьба с жалобами обращаться напрямую к пользователю, разместившему торрент файл.

Вверх