Loading...
Error

Охотник на пресноводных гигантов / Fish warrior (6 серий из 6) [2010 г., документальный, путешествия, рыбалка, экстрим, SatRip] Dub

Статистика раздачи
Размер:  3,47 GB   |    Зарегистрирован:  4 месяца 4 дня   |    Скачан:  0 раз

Полного источника не было: 4 месяца 1 день

Сидов:  0  |  0 KB/s  ]   Личеров:  0  |  0 KB/s  ]

* - сиды/пиры с внешних источников

   
 
Автор Сообщение

ARI71 Пол:Муж

06-Авг-2016 10:11

Охотник на пресноводных гигантов / Fish warrior (6 серий из 6)


Год выпуска: 2010
Жанр: документальный, путешествия, рыбалка, экстрим
Страна: США National Geographic
В ролях: Якуб Вагнер
Сюжет фильма:
Путешествуя по миру, рыбак – экстремал Якуб Вагнер рискует жизнью, чтобы найти легендарных пресноводных чудовищ. Но дожили ли речные гиганты до наших дней, они встречаются крайне редко. Чтобы поймать рыбу великана вдвое крупнее его, ему придётся победить силы природы и выжить в лесах Амазонки. Реально ли удержать в руках легендарного титана? Есть только один способ это проверить, сразиться с речным гигантом, огромной пираибой. Поимка трофейной пираибы в свете спортивного рыболовства относится к одному из самых тяжелых экзаменов по ловле. Немногим людям на свете удалось поймать этот вид сома рекордного размера.


Качество видео: SatRip

Продолжительность: 6 х ~ 00:45:00
Формат: AVI
Видео: XviD, 704x450, ~1705 kbps
Аудио: русский, (дублированный), MP3 2.0, ~128.00 kbps
(тех. данные всех серий идентичны)

Код:

Общее
Полное имя : D:\National.Geographic.Ohotnik.na.presnovodnyh.gigantov.2011XviD.SATRip\National.Geographic.Ohotnik.na.presnovodnyh.gigantov.Amazonskij.Velikan.2011XviD.SATRip.avi
Формат : AVI
Формат/Информация : Audio Video Interleave
Размер файла : 591 Мбайт
Продолжительность : 44 м.
Общий поток : 1840 Кбит/сек

Видео
Идентификатор : 0
Формат : MPEG-4 Visual
Профиль формата : Simple@L1
Параметр BVOP формата : Нет
Параметр QPel формата : Нет
Параметр GMC формата : Без точки перехода
Параметр матрицы формата : Default (H.263)
Идентификатор кодека : XVID
Идентификатор кодека/Подсказка : XviD
Продолжительность : 44 м.
Битрейт : 1705 Кбит/сек
Ширина : 704 пикселя
Высота : 450 пикселей
Соотношение сторон : 16:10
Частота кадров : 25,000 кадров/сек
Цветовое пространство : YUV
Субдискретизация насыщенности : 4:2:0
Битовая глубина : 8 бит
Тип развёртки : Прогрессивная
Метод сжатия : С потерями
Бит/(Пиксели*Кадры) : 0.215
Размер потока : 548 Мбайт (93%)
Библиотека кодирования : XviD 63

Аудио
Идентификатор : 1
Формат : MPEG Audio
Версия формата : Version 1
Профиль формата : Layer 3
Режим : Joint stereo
Расширение режима : MS Stereo
Идентификатор кодека : 55
Идентификатор кодека/Подсказка : MP3
Продолжительность : 44 м.
Вид битрейта : Постоянный
Битрейт : 128 Кбит/сек
Каналы : 2 канала
Частота : 48,0 КГц
Метод сжатия : С потерями
Размер потока : 41,1 Мбайт (7%)
Выравнивание : Соединение по промежуткам
Продолжительность промежутка : 600 мс. (15,00 видеокадров)
1 серия. Амазонский великан
2 серия. Сом-великан
3 серия. Нильский исполин
4 серия. Сом-монстр
5 серия. Живое ископаемое
6 серия. Техасский титан
picpicpicpicpic
Для увеличения картинки щелкните мышкой по превью

Этот торрент недоступен для скачивания без регистрации, однако доступен по публичной magnet-ссылке (источники с публичных трекеров). Перед использованием ссылки прочтите, пожалуйста Пользовательское соглашение, а также как можно дольше оставайтесь на раздаче! Для того, чтобы скачать сам торрент-файл (который видит больше источников), а также для того, чтобы поблагодарить релизера, вам необходимо зарегистрироваться. Если регистрироваться лень - вы можете также попробовать скачать релиз по нашим партнерским ссылкам ниже.

[underverse.su].t68682.torrent
Трекер: Зарегистрирован   [ 06.08.2016 10:11 ]  

Статус: проверено (by makkol at 06.08.2016 10:43)
Поблагодарили: пока никто не поблагодарил...
Тип торрента: публичный - доступные источники с открытых трекеров: 
Размер: 3,47 GB (занимает 0,79 DVDR, для записи нужно 1 болванка DVDR/RW)
 
 
Похожие темы
Форум Тема Автор Торрент Отв. Посл. сооб.
Зарубежное кино [DVDRip, Low-Res HDRip, и т.д.] Охотник на убийц / Suspect Zero (Э. Елиас Мериге) [2004 г., фантастика, триллер, криминал, DVB] DVO Паукан
0 | 0

0 | 2135

31

24.10.2013 10:41

T Зарубежное кино [DVDRip, Low-Res HDRip, и т.д.] Охотник на лис / Foxcatcher (Беннетт Миллер / Bennett Miller) [2014 г., триллер, драма, биография, спорт, HDTVRip] VO (Артём Белоконский) 90ytr90
57 | 0

0 | 2803

15

10.01.2015 18:55

T Зарубежное кино [DVDRip, Low-Res HDRip, и т.д.] Охотник на лис / Foxcatcher (Беннетт Миллер / Bennett Miller) [2014 г., триллер, драма, биография, спорт, HDTVRip] DVO (ColdFilm) + Original (Eng) 90ytr90
0 | 1

0 | 5474

17

10.01.2015 19:04

T Зарубежное кино [DVDRip, Low-Res HDRip, и т.д.] Охотник на лис / Foxcatcher (Беннетт Миллер / Bennett Miller) [2014 г., триллер, драма, биография, спорт, HDRip] Dub (iTunes) 90ytr90
2 | 0

0 | 2631

8

21.02.2015 16:09

T Зарубежное кино [DVDRip, Low-Res HDRip, и т.д.] Охотник на лис / Foxcatcher (Беннетт Миллер / Bennett Miller) [2014 г., триллер, драма, биография, спорт, HDRip] Dub (iTunes) + Original (Eng) 90ytr90
56 | 1

0 | 5215

5

21.02.2015 16:14

T Зарубежное кино [DVDRip, Low-Res HDRip, и т.д.] Охотник на лис / Foxcatcher (Беннетт Миллер / Bennett Miller) [2014 г., триллер, драма, биография, спорт, HDRip] Dub (iTunes) 90ytr90
0 | 1

0 | 2667

10

24.02.2015 18:30

Зарубежное кино [DVDRip, Low-Res HDRip, и т.д.] Охотник на убийц / Suspect Zero (Э. Елиас Мериге / E. Elias Merhige) [2004 г., фантастика, триллер, криминал, HDRip] MVO 90ytr90
45 | 1

0 | 683

23

08.06.2016 19:53

Классика зарубежного кино Охотник на оленей / The Deer Hunter (Майкл Чимино) [1978 г., драма, военный, HDRip] MVO garry
1 | 0

0 | 1251

14

11.01.2014 07:50

Зарубежное кино [HDDVDRip / BDRip / WEB-DL / HDTV 1080/720р] Охотник на оленей / The Deer Hunter (Майкл Чимино) [1978 г., драма, военный, BDRip 1080p] 2xMVO + 2xAVO + Original garry
16 | 0

0 | 1027

2

11.01.2014 07:40

T Зарубежное кино [HDDVDRip / BDRip / WEB-DL / HDTV 1080/720р] Охотник на лис / Foxcatcher (Беннетт Миллер / Bennett Miller) [2014 г., триллер, драма, биография, спорт, HDTV 720p] VO (Артём Белоконский) + Original (Eng) 90ytr90
56 | 0

1 | 5825

11

05.02.2015 23:43

ARI71 Пол:Муж

06-Авг-2016 10:15

Приятного всем просмотра!


Яндекс.Метрика powered by Sphinx


В Н И М А Н И Е
Сайт не распространяет и не хранит электронные версии произведений, а лишь бесплатно и без коммерческой выгоды (не требуя взамен платы,
SMS и т.д.) предоставляет доступ к создаваемому пользователями каталогу ссылок на торрент-файлы, которые содержат только списки хеш-сумм.
Убедительная просьба с жалобами обращаться напрямую к пользователю, разместившему торрент файл.

Вверх