Loading...
Error

Герника / Gernika (Кольдо Серра) [2016 г., мелодрама, военный, WEB-DLRip] MVO (Parovoz Production)

Статистика раздачи
Размер:  1,46 GB   |    Зарегистрирован:  4 месяца 1 день   |    Скачан:  1 раз

Полного источника не было: 3 месяца 9 дней

Сидов:  0  |  0 KB/s  ]   Личеров:  0  |  0 KB/s  ]

* - сиды/пиры с внешних источников

   
 
Автор Сообщение

makkol Пол:Муж

04-Авг-2016 11:22

Герника / Gernika


Год выпуска: 2016
Жанр: мелодрама, военный
Производство: Испания [Anima Pictures, Gernika The Movie]
Режиссер: Кольдо Серра
В ролях: Берн Горман, Джеймс Д’Арси, Джек Девенпорт, Мария Вальверде, Уго Сильва, Ирена Эсколар, Ингрид Гарсия Йонсон, Йоахим Пауль Ассбёк
Сюжет фильма:
Романтическая драма о разочарованном и циничном американском журналисте, который оказывается единственным «вестником правды» из испанского города Герника, где зверствует гражданская война. В его работу и дальнейшую судьбу вмешивается местная республиканка Тереза, ответственная за цензуру исходящих новостей...

  • Мировая премьера: 26 апреля 2016


Качество видео: WEB-DLRip

Продолжительность: 01:50:25
Формат: AVI
Видео: XviD, 720x304 (2.35:1), 23.976 fps, 1688 kbps
Аудио: русский, любительский многоголосый закадровый (Parovoz Production), AC3 2.0, 48 kHz, 192 kbps

Код:

Формат                                   : AVI
Формат/Информация                        : Audio Video Interleave
Размер файла                             : 1,46 Гбайт
Продолжительность                        : 1 ч. 50 м.
Общий поток                              : 1889 Кбит/сек
Программа кодирования                    : VirtualDubMod 1.5.10.2 (build 2540/release)
Библиотека кодирования                   : VirtualDubMod build 2540/release

Видео
Идентификатор                            : 0
Формат                                   : MPEG-4 Visual
Профиль формата                          : Advanced Simple@L5
Параметр BVOP формата                    : 2
Параметр QPel формата                    : Нет
Параметр GMC формата                     : Без точки перехода
Параметр матрицы формата                 : Выборочная
Идентификатор кодека                     : XVID
Идентификатор кодека/Подсказка           : XviD
Продолжительность                        : 1 ч. 50 м.
Битрейт                                  : 1688 Кбит/сек
Ширина                                   : 720 пикселей
Высота                                   : 304 пикселя
Соотношение сторон                       : 2,35:1
Частота кадров                           : 23,976 (24000/1001) кадра/сек
Цветовое пространство                    : YUV
Субдискретизация насыщенности            : 4:2:0
Битовая глубина                          : 8 бит
Тип развёртки                            : Прогрессивная
Метод сжатия                             : С потерями
Бит/(Пиксели*Кадры)                      : 0.322
Размер потока                            : 1,30 Гбайт (89%)
Библиотека кодирования                   : XviD 1.2.1 (UTC 2008-12-04)

Аудио
Идентификатор                            : 1
Формат                                   : AC-3
Формат/Информация                        : Audio Coding 3
Расширение режима                        : CM (complete main)
Параметр Endianness формата              : Big
Идентификатор кодека                     : 2000
Продолжительность                        : 1 ч. 50 м.
Вид битрейта                             : Постоянный
Битрейт                                  : 192 Кбит/сек
Каналы                                   : 2 канала
Расположение каналов                     : Front: L R
Частота                                  : 48,0 КГц
Частота кадров                           : 31,250 кадров/сек (1536 spf)
Метод сжатия                             : С потерями
Размер потока                            : 152 Мбайт (10%)
Выравнивание                             : Разделение по промежуткам
Продолжительность промежутка             : 42  мс. (1,00 видеокадр)
Время предзагрузки промежутка            : 500  мс.
Присутствует реклама


picpicpicpicpic
Для увеличения картинки щелкните мышкой по превью

Этот торрент недоступен для скачивания без регистрации, однако доступен по публичной magnet-ссылке (источники с публичных трекеров). Перед использованием ссылки прочтите, пожалуйста Пользовательское соглашение, а также как можно дольше оставайтесь на раздаче! Для того, чтобы скачать сам торрент-файл (который видит больше источников), а также для того, чтобы поблагодарить релизера, вам необходимо зарегистрироваться. Если регистрироваться лень - вы можете также попробовать скачать релиз по нашим партнерским ссылкам ниже.

[underverse.su].t68612.torrent
Трекер: Зарегистрирован   [ 04.08.2016 11:22 ]  

Статус: T временная (by makkol at 05.08.2016 23:22)
Поблагодарили: пока никто не поблагодарил...
Тип торрента: публичный - доступные источники с открытых трекеров: 
Размер: 1,46 GB (занимает 1/3 DVDR, для записи нужно 1 болванка DVDR/RW)
 
 
Похожие темы
Форум Тема Автор Торрент Отв. Посл. сооб.
T Зарубежное кино [DVDRip, Low-Res HDRip, и т.д.] Герника / Gernika (Кольдо Серра) [2016 г., мелодрама, военный, WEB-DLRip] MVO makkol
341 | 12

0 | 206

3

07.09.2016 12:50

T Зарубежное кино [HDDVDRip / BDRip / WEB-DL / HDTV 1080/720р] Герника / Gernika (Кольдо Серра) [2016 г., мелодрама, военный, WEB-DL 1080p] MVO + Original + Subs makkol
32 | 0

0 | 264

1

07.09.2016 13:01

T Зарубежное кино [HDDVDRip / BDRip / WEB-DL / HDTV 1080/720р] Герника / Gernika (Кольдо Серра) [2016 г., мелодрама, военный, WEB-DL 720p] MVO (Parovoz Production) makkol
9 | 0

0 | 243

2

04.08.2016 11:27

T Зарубежное кино [HDDVDRip / BDRip / WEB-DL / HDTV 1080/720р] Герника / Gernika (Кольдо Серра) [2016 г., мелодрама, военный, WEB-DL 1080p] MVO (Parovoz Production) makkol
14 | 0

0 | 281

3

04.08.2016 11:31


Яндекс.Метрика powered by Sphinx


В Н И М А Н И Е
Сайт не распространяет и не хранит электронные версии произведений, а лишь бесплатно и без коммерческой выгоды (не требуя взамен платы,
SMS и т.д.) предоставляет доступ к создаваемому пользователями каталогу ссылок на торрент-файлы, которые содержат только списки хеш-сумм.
Убедительная просьба с жалобами обращаться напрямую к пользователю, разместившему торрент файл.

Вверх