Loading...
Error

Речные монстры (8 сезон: 1-7 серии) / River monster (Барни Ревилл, Доминик Уэстон) [2016 г., документальный, рыбалка, путешествия, география, природа, приключения, HDTVRip 720p] Dub

Статистика раздачи
Размер:  8,99 GB   |    Зарегистрирован:  3 месяца 30 дней   |    Скачан:  2 раза

Полного источника не было: 18 часов

Сидов:  0  |  0 KB/s  ]   Личеров:  0  |  0 KB/s  ]

* - сиды/пиры с внешних источников

   
 
Автор Сообщение

ARI71 Пол:Муж

03-Авг-2016 11:40

Речные монстры (8 сезон: 1-7 серии) / River monster


Год выпуска: 2016
Жанр: документальный, рыбалка, путешествия, география, природа, приключения
Страна: США Discovery Channel
Режиссер: Барни Ревилл, Доминик Уэстон
Ведущий: Джереми Вэйд
Сюжет фильма:
Джереми Вэйд отправляется на поиски новых пугающих пресноводных созданий, путешествуя по всему миру. Рыбак-экстремал собирает легенды и истории о таинственных и грозных рыбах, обитающих в реках и озерах, а затем выясняет, что за ними стоит. Встречайте новые загадки природы и посмотрите, как Джереми находит ответ с помощью рыбалки! В новом сезоне Джереми едет в Юго-Восточную Азию: по слухам, в водах меконга живет рыба, которая способна утащить человека под воду. Затем события разворачиваются в дельте африканской реки Окаванго, где стаи водных хищников якобы переворачивают лодки. Тем временем ужасающие новости приходят из архипелага Флорида-Кис – люди боятся зайти в воду из-за существа, которое нагоняет страх на всю округу. Кроме того, рыболов попытается раскрыть тайну «голубых дыр» на райских Багамах, где хищные рыбы атакуют пловцов. Наконец, Джереми Вэйд побывает в Канаде, где ходят слухи о семиметровом озерном монстре – действительно ли он настолько огромен?


Качество видео: HDTVRip 720p

Продолжительность: 7 x ~ 00:44:00
Формат: MKV
Видео: V_MPEG4/ISO/AVC, 1280x720, ~4000 kbps
Аудио: русский, (дублированный), MP2 2.0, ~192.00 kbps
Раздача ведётся путём добавления новых серий; при каждом добавлении создаётся новый торрент. Чтобы начать докачку новой серии, пользователям необходимо сделать следующее:

- Остановить скачивание.
- Удалить старый торрент у себя из клиента (старые серии удалять не надо).
- Скачать новый торрент и запустить его у себя в клиенте вместо старого, при этом указать клиенту путь в старую папку куда и должно происходить скачивание новых серий.

Ваш клиент при этом должен произвести хеширование (проверку) старой папки (если не производит сам - помогите ему сделать это), и будет докачивать только те серии которых у вас ещё нет. Старые серии при этом не удаляются, а продолжают раздаваться!
Если вы уже удалили старые серии, то предотвратить повторную закачку старых серий можно, отжав галочку в соответствующих местах при запуске нового торрента. По возможности, желательно не удалять старые серии как можно дольше, чтобы релизер не столько продолжал раздавать старые серии, а смог сконцентрироваться на новых.

Код:

Общее
Уникальный идентификатор : 190490883544384355358319772603599751634 (0x8F4F35AD444B4F860E285BFA2C2F09D2)
Полное имя : D:\Речные монстры S08 720p HitWay\01 Речные монстры.mkv
Формат : Matroska
Версия формата : Version 2
Размер файла : 1,28 Гбайт
Продолжительность : 43 м.
Режим общего битрейта : Постоянный
Общий поток : 4197 Кбит/сек
Программа кодирования : Lavf54.63.104
Библиотека кодирования : Lavf54.63.104 / Lavf54.63.104

Видео
Идентификатор : 1
Формат : AVC
Формат/Информация : Advanced Video Codec
Профиль формата : High@L4.1
Параметр CABAC формата : Да
Параметр ReFrames формата : 3 кадра
Идентификатор кодека : V_MPEG4/ISO/AVC
Продолжительность : 43 м.
Вид битрейта : Постоянный
Битрейт : 4000 Кбит/сек
Ширина : 1280 пикселей
Высота : 720 пикселей
Соотношение сторон : 16:9
Режим частоты кадров : Постоянный
Частота кадров : 30,000 кадров/сек
Стандарт вещания : NTSC
Цветовое пространство : YUV
Субдискретизация насыщенности : 4:2:0
Битовая глубина : 8 бит
Тип развёртки : Прогрессивная
Бит/(Пиксели*Кадры) : 0.145
Размер потока : 1,19 Гбайт (93%)
Default : Нет
Forced : Нет
Цветовой диапазон : Limited
Основные цвета : BT.709
Характеристики трансфера : BT.709
Коэффициенты матрицы : BT.709

Аудио
Идентификатор : 2
Формат : MPEG Audio
Версия формата : Version 1
Профиль формата : Layer 2
Идентификатор кодека : A_MPEG/L2
Идентификатор кодека/Подсказка : MP2
Продолжительность : 43 м.
Вид битрейта : Постоянный
Битрейт : 192 Кбит/сек
Каналы : 2 канала
Частота : 48,0 КГц
Метод сжатия : С потерями
Задержка видео : 10 мс.
Размер потока : 59,9 Мбайт (5%)
Язык : English
Default : Да
Forced : Нет
01. Бритвоголовый.
02. Ужас в раю.
03. Глубинный дьявол.
04. Морской демон.
05. Смерть под толщей воды.
06. Морские секреты. (спецвыпуск)
07. Монстры внутри.
picpicpicpicpic
Для увеличения картинки щелкните мышкой по превью

Этот торрент недоступен для скачивания без регистрации, однако доступен по публичной magnet-ссылке (источники с публичных трекеров). Перед использованием ссылки прочтите, пожалуйста Пользовательское соглашение, а также как можно дольше оставайтесь на раздаче! Для того, чтобы скачать сам торрент-файл (который видит больше источников), а также для того, чтобы поблагодарить релизера, вам необходимо зарегистрироваться. Если регистрироваться лень - вы можете также попробовать скачать релиз по нашим партнерским ссылкам ниже.

[underverse.su].t68588.torrent
Трекер: Зарегистрирован   [ 03.08.2016 11:40 ]  

Статус: T временная (by makkol at 03.08.2016 15:28)
Поблагодарили: пока никто не поблагодарил...
Тип торрента: публичный - доступные источники с открытых трекеров: 
Размер: 8,99 GB (занимает 2,05 DVDR, для записи нужно 3 болванки DVDR/RW)
 
 
Похожие темы
Форум Тема Автор Торрент Отв. Посл. сооб.
T Discovery Речные монстры / River monster (8 сезон: 1-7 серии) / (Барни Ревилл, Доминик Уэстон) [2016 г., документальный, рыбалка, путешествия, география, природа, HDTVRip] Dub ARI71
13 | 1

1 | 898

1

03.08.2016 08:56


Яндекс.Метрика powered by Sphinx


В Н И М А Н И Е
Сайт не распространяет и не хранит электронные версии произведений, а лишь бесплатно и без коммерческой выгоды (не требуя взамен платы,
SMS и т.д.) предоставляет доступ к создаваемому пользователями каталогу ссылок на торрент-файлы, которые содержат только списки хеш-сумм.
Убедительная просьба с жалобами обращаться напрямую к пользователю, разместившему торрент файл.

Вверх