Loading...
Error

Ив Сен Лоран / Yves Saint Laurent - Tout terriblement (Жером Де Миссо, Армель Брюск) [1994 г., документальный, биография, мода, DVB] DVO

Статистика раздачи
Размер:  969 MB   |    Зарегистрирован:  4 месяца 7 дней   |    Скачан:  0 раз

Полного источника не было: 4 месяца 5 дней

Сидов:  0  |  0 KB/s  ]   Личеров:  0  |  0 KB/s  ]

* - сиды/пиры с внешних источников

   
 
Автор Сообщение

ARI71 Пол:Муж

03-Авг-2016 09:59

Ив Сен Лоран / Yves Saint Laurent - Tout terriblement


Год выпуска: 1994
Жанр: документальный, биография, мода
Страна: Франция
Режиссер: Жером Де Миссо, Армель Брюск
В ролях: Жанна Моро
Сюжет фильма:
Ив Анри Дона Матьё Сен-Лоран, французский модельер, царивший в мире высокой моды 1960-70х годов. После смерти Кристиана Диора, у которого Ив начинал ассистентом, в 1957 году встал во главе его модельного дома (ему был 21 год). Ввёл в женскую моду элементы мужского гардероба — кожаные пиджаки, сапоги по бедро и даже смокинги (1966). Считается основателем стиля унисекс. Был первым, кто пригласил темнокожих манекенщиц для участия в показах мод своих коллекций. Изгнанник Ив Сен-Лоран готовил новую бомбу. И она действительно взбудоражила весь Париж. Свою новую коллекцию он назвал Beat Look: на подиум словно ворвался ветер с улицы — черные кожаные куртки, свитера с высоким горлом, короткие юбки. Аристократия была в шоке — им предложили выглядеть так, словно они какие-нибудь студенточки из Сорбонны.

Ив Анри́ Дона́ Матьё Сен-Лора́н (фр. Yves Henri Donat Mathieu-Saint-Laurent; 1 августа 1936, Оран, Алжир — 1 июня 2008, Париж) — французский модельер, работавший в мире высокой моды с конца 1950-х до конца 1980-х годов, создатель модного дома своего имени.

Качество видео: DVB

Продолжительность: 00:44:47
Формат: MPEG-TS
Видео: MPEG 2, 720x576, ~2681 kbps
Аудио: русский, двухголосый закадровый (профессиональный), MP2 2.0, ~192.00 kbps

Код:

Общее
Идентификатор : 1 (0x1)
Полное имя : D:\[apreder]Yves_Saint_Laurent_Tout_Terriblement(1994)DVB.ts
Формат : MPEG-TS
Размер файла : 969 Мбайт
Продолжительность : 44 м.
Режим общего битрейта : Переменный
Общий поток : 3024 Кбит/сек

Видео
Идентификатор : 224 (0xE0)
Идентификатор меню : 258 (0x102)
Формат : MPEG Video
Версия формата : Version 2
Профиль формата : Main@Main
Параметр BVOP формата : Да
Параметр матрицы формата : Выборочная
Параметр GOP формата : M=3, N=12
Структура изображения : Frame
Идентификатор кодека : 2
Продолжительность : 44 м.
Вид битрейта : Переменный
Битрейт : 2681 Кбит/сек
Максимальный битрейт : 4500 Кбит/сек
Ширина : 720 пикселей
Высота : 576 пикселей
Соотношение сторон : 4:3
Частота кадров : 25,000 кадров/сек
Стандарт вещания : PAL
Цветовое пространство : YUV
Субдискретизация насыщенности : 4:2:0
Битовая глубина : 8 бит
Тип развёртки : Чересстрочная
Порядок развёртки : Верхнее поле первое
Метод сжатия : С потерями
Бит/(Пиксели*Кадры) : 0.259
Временной код первого кадра : 17:19:35:08
Оригинал временного кода : Group of pictures header
GOP, открыто/закрыто : Открыто
Размер потока : 859 Мбайт (89%)

Аудио
Идентификатор : 192 (0xC0)
Идентификатор меню : 258 (0x102)
Формат : MPEG Audio
Версия формата : Version 1
Профиль формата : Layer 2
Идентификатор кодека : 3
Продолжительность : 44 м.
Вид битрейта : Постоянный
Битрейт : 192 Кбит/сек
Каналы : 2 канала
Частота : 48,0 КГц
Метод сжатия : С потерями
Задержка видео : -189 мс.
Размер потока : 61,5 Мбайт (6%)
Язык : German
Язык, дополнительно : Clean effects
двухголосый закадровый (профессиональный) - (ЗАО "Первый канал. Всемираная сеть")
picpicpicpicpic
Для увеличения картинки щелкните мышкой по превью

Этот торрент недоступен для скачивания без регистрации, однако доступен по публичной magnet-ссылке (источники с публичных трекеров). Перед использованием ссылки прочтите, пожалуйста Пользовательское соглашение, а также как можно дольше оставайтесь на раздаче! Для того, чтобы скачать сам торрент-файл (который видит больше источников), а также для того, чтобы поблагодарить релизера, вам необходимо зарегистрироваться. Если регистрироваться лень - вы можете также попробовать скачать релиз по нашим партнерским ссылкам ниже.

[underverse.su].t68585.torrent
Трекер: Зарегистрирован   [ 03.08.2016 09:59 ]  

Статус: проверено (by makkol at 03.08.2016 11:24)
Поблагодарили: пока никто не поблагодарил...
Тип торрента: публичный - доступные источники с открытых трекеров: 
Размер: 969 MB (занимает 0,22 DVDR, для записи нужно 1 болванка DVDR/RW)
 
 

Яндекс.Метрика powered by Sphinx


В Н И М А Н И Е
Сайт не распространяет и не хранит электронные версии произведений, а лишь бесплатно и без коммерческой выгоды (не требуя взамен платы,
SMS и т.д.) предоставляет доступ к создаваемому пользователями каталогу ссылок на торрент-файлы, которые содержат только списки хеш-сумм.
Убедительная просьба с жалобами обращаться напрямую к пользователю, разместившему торрент файл.

Вверх