Loading...
Error

Смертельная любовь кровопийцы (Пауки: убийственная любовь) / Spiders Deadly Love (Эммануэль Мэйрисс) [2004 г., документальный, научно-познавательный, TVRip] VO

Статистика раздачи
Размер:  430 MB   |    Зарегистрирован:  4 месяца 8 дней   |    Скачан:  1 раз

Полного источника не было: 1 месяц

Сидов:  0  |  0 KB/s  ]   Личеров:  0  |  0 KB/s  ]

* - сиды/пиры с внешних источников

   
 
Автор Сообщение

ARI71 Пол:Муж

02-Авг-2016 06:22

Смертельная любовь кровопийцы (Пауки: убийственная любовь) / Spiders Deadly Love


Год выпуска: 2004
Жанр: документальный, научно-познавательный
Страна: США National Geographic Television and Film Production
Режиссер: Эммануэль Мэйрисс
Сюжет фильма:
Вот уже 400 млн. лет пауки сохраняют за собой звание самых свирепых хищников на планете. Их арсенал смертельных орудий впечатляет: молниеносная скорость, крепкая паутина, острые конечности и быстродействующий яд. И в опасности может оказаться не только неосторожная жертва, но зачастую и представитель собственного вида. Даже когда у пауков приходит время брачных игр, смерть не уходит в отпуск. Ведь любой брачный танец может закончиться гибелью... Почему так опасна любовь пауков? И что заставляет их убивать собственных партнеров?
Качество видео: TVRip

Продолжительность: 00:43:06
Формат: AVI
Видео: XviD, 704x528, ~1256 kbps
Аудио: русский, одноголосый (профессиональный), MP3 2.0, ~128.00 kbps

Код:

Общее
Полное имя : D:\National.Geographic.Smertelnaja.ljubov.krovopijcy.2004.XviD.avi
Формат : AVI
Формат/Информация : Audio Video Interleave
Размер файла : 430 Мбайт
Продолжительность : 43 м.
Общий поток : 1394 Кбит/сек
Программа кодирования : VirtualDubMod 1.5.10.2 (build 2540/release)
Библиотека кодирования : VirtualDubMod build 2540/release

Видео
Идентификатор : 0
Формат : MPEG-4 Visual
Профиль формата : Advanced Simple@L5
Параметр BVOP формата : 1
Параметр QPel формата : Нет
Параметр GMC формата : Без точки перехода
Параметр матрицы формата : Default (MPEG)
Идентификатор кодека : XVID
Идентификатор кодека/Подсказка : XviD
Продолжительность : 43 м.
Битрейт : 1256 Кбит/сек
Ширина : 704 пикселя
Высота : 528 пикселей
Соотношение сторон : 4:3
Частота кадров : 25,000 кадров/сек
Цветовое пространство : YUV
Субдискретизация насыщенности : 4:2:0
Битовая глубина : 8 бит
Тип развёртки : Прогрессивная
Метод сжатия : С потерями
Бит/(Пиксели*Кадры) : 0.135
Размер потока : 387 Мбайт (90%)
Библиотека кодирования : XviD 1.2.1 (UTC 2008-12-04)

Аудио
Идентификатор : 1
Формат : MPEG Audio
Версия формата : Version 1
Профиль формата : Layer 3
Идентификатор кодека : 55
Идентификатор кодека/Подсказка : MP3
Продолжительность : 43 м.
Вид битрейта : Постоянный
Битрейт : 128 Кбит/сек
Каналы : 2 канала
Частота : 48,0 КГц
Метод сжатия : С потерями
Размер потока : 39,5 Мбайт (9%)
Выравнивание : Соединение по промежуткам
Продолжительность промежутка : 40 мс. (1,00 видеокадр)
Время предзагрузки промежутка : 504 мс.
Библиотека кодирования : LAME3.98r
Настройки программы : -m s -V 4 -q 2 -lowpass 17 -b 128
Одноголосый (профессиональный) - (ТРК Петербург 5 канал)
picpicpicpicpic
Для увеличения картинки щелкните мышкой по превью

Этот торрент недоступен для скачивания без регистрации, однако доступен по публичной magnet-ссылке (источники с публичных трекеров). Перед использованием ссылки прочтите, пожалуйста Пользовательское соглашение, а также как можно дольше оставайтесь на раздаче! Для того, чтобы скачать сам торрент-файл (который видит больше источников), а также для того, чтобы поблагодарить релизера, вам необходимо зарегистрироваться. Если регистрироваться лень - вы можете также попробовать скачать релиз по нашим партнерским ссылкам ниже.

[underverse.su].t68568.torrent
Трекер: Зарегистрирован   [ 02.08.2016 06:22 ]  

Статус: проверено (by makkol at 02.08.2016 09:54)
Поблагодарили: 1 человек
Тип торрента: публичный - доступные источники с открытых трекеров: 
Размер: 430 MB (занимает 0,1 DVDR, для записи нужно 1 болванка DVDR/RW)
 
 
Похожие темы
Форум Тема Автор Торрент Отв. Посл. сооб.
Зарубежное кино [DVDRip, Low-Res HDRip, и т.д.] Смертельная гонка: Франкенштейн жив / Death Race 2 (Роэль Рейн ) [2010 г., фантастика, боевик, триллер , BDRip] WeaSel
0 | 0

4 | 775

4

13.01.2011 13:28

Зарубежное кино [DVDRip, Low-Res HDRip, и т.д.] Смертельная гонка 2: Франкенштейн жив / Death Race 2 (Роэль Рейн ) [2010 г., фантастика, боевик, триллер , HDRip] Dub R5 _Dante_
2 | 0

5 | 846

27

10.10.2012 09:39

Зарубежное кино [DVDRip, Low-Res HDRip, и т.д.] Смертельная гонка 3 / Death Race: Inferno [Urated] (Роэль Рейн) [2013 г., боевик, триллер, криминал, HDRip] VO (Kerob) + Eng 90ytr90
2 | 0

0 | 1729

64

13.01.2013 09:30

Зарубежное кино [DVDRip, Low-Res HDRip, и т.д.] Смертельная гонка 3 / Death Race: Inferno [Unrated] (Роэль Рейн) [2013 г., боевик, триллер, криминал, HDRip] VO (Kerob) 90ytr90
1 | 0

0 | 801

16

13.01.2013 09:35

Зарубежное кино [DVDRip, Low-Res HDRip, и т.д.] Смертельная гонка 3 / Death Race: Inferno [Unrated] (Роэль Рейн) [2013 г., боевик, триллер, криминал, HDRip] VO (Kerob) 90ytr90
24 | 0

0 | 820

11

13.01.2013 09:43

Зарубежное кино [DVDRip, Low-Res HDRip, и т.д.] Смертельная гонка 3 / Death Race: Inferno [Unrated] (Роэль Рейн) [2013 г., боевик, триллер, криминал, HDRip] DVO (Antasia, adrenal_in) 90ytr90
5 | 0

0 | 801

13

14.01.2013 15:09

Зарубежное кино [DVDRip, Low-Res HDRip, и т.д.] Смертельная гонка 3 / Death Race: Inferno [Unrated] (Роэль Рейн) [2013 г., боевик, триллер, криминал, HDRip] Dub + Eng 90ytr90
0 | 0

1 | 730

16

13.02.2013 10:36

Зарубежное кино [DVDRip, Low-Res HDRip, и т.д.] Смертельная гонка 3 / Death Race: Inferno [Unrated] (Роэль Рейн) [2013 г., боевик, триллер, криминал, HDRip] Dub 90ytr90
11 | 0

2 | 1473

48

28.03.2013 19:17

Зарубежное кино [DVDRip, Low-Res HDRip, и т.д.] Смертельная гонка 3 / Death Race: Inferno [Unrated] (Роэль Рейн) [2013 г., боевик, триллер, криминал, HDRip] Dub 90ytr90
4 | 0

0 | 731

5

04.02.2013 07:44

Зарубежное кино [DVDRip, Low-Res HDRip, и т.д.] Смертельная семёрка / Dead 7 (Денни Роу) [2016 г., ужасы, вестерн, WEBRip] VO makkol
220 | 6

0 | 540

7

02.05.2016 23:00


Яндекс.Метрика powered by Sphinx


В Н И М А Н И Е
Сайт не распространяет и не хранит электронные версии произведений, а лишь бесплатно и без коммерческой выгоды (не требуя взамен платы,
SMS и т.д.) предоставляет доступ к создаваемому пользователями каталогу ссылок на торрент-файлы, которые содержат только списки хеш-сумм.
Убедительная просьба с жалобами обращаться напрямую к пользователю, разместившему торрент файл.

Вверх