Loading...
Error

Алексей Баталов. Я не торгуюсь с судьбой (Расим Полоскин) [2013 г., документальный, биография, IPTVRip]

Статистика раздачи
Размер:  635 MB   |    Зарегистрирован:  4 месяца 6 дней   |    Скачан:  1 раз

Полного источника не было: 1 месяц 18 дней

Сидов:  0  |  0 KB/s  ]   Личеров:  0  |  0 KB/s  ]

* - сиды/пиры с внешних источников

   
 
Автор Сообщение

ARI71 Пол:Муж

01-Авг-2016 10:50

Алексей Баталов. Я не торгуюсь с судьбой


Год выпуска: 2013
Жанр: документальный, биография
Страна: Россия 1 канал
Режиссер: Расим Полоскин
Сюжет фильма:
"Летят журавли" - 1957 год, "Золотая пальмовая ветвь" Каннского кинофестиваля. "Москва слезам не верит" - 1979 год, "Оскар" за лучший зарубежный фильм года. Алексей Баталов дважды становился героем своего времени: для поколения хрущевской оттепели он - Борис Бороздин из "Летят журавли", для эпохи брежневского застоя - Гоша из фильма "Москва слезам не верит". После "Москва слезам не верит" Алексей Баталов всего несколько раз появлялся на экранах. На творческих вечерах, отбиваясь от вопросов, неизменно отвечает: не снимаю и не снимаюсь потому, что у меня в любом случае получится ретромобиль...В фильме принимают участие: Владимир Зельдин, Юрий Норштейн, Анна Ардова, Михаил Ардов, Владимир Меньшов, Вера Алентова, Инна Макарова.

Алексе́й Влади́мирович Бата́лов (род. 20 ноября 1928, Владимир) — советский российский актёр театра и кино, кинорежиссёр, сценарист, педагог и общественный деятель. Народный артист СССР (1976). Герой Социалистического Труда (1989). Лауреат Государственной премии СССР (1981), Государственной премии РСФСР имени братьев Васильевых (1966), Государственной премии России (2005).

Качество видео: IPTVRip

Продолжительность: 00:50:56
Формат: AVI
Видео: XviD, 704х384, ~1541 kbps
Аудио: русский, (оригинал), AC3 2.0, ~192.00 kbps

Код:

Общее
Полное имя : D:\Алексей Баталов.Я не торгуюсь с судьбой.2013.IPTVRip.avi
Формат : AVI
Формат/Информация : Audio Video Interleave
Размер файла : 635 Мбайт
Продолжительность : 50 м.
Общий поток : 1743 Кбит/сек
Программа кодирования : VirtualDubMod 1.5.10.3 | www.virtualdub-fr.org || (build 2550/release)
Библиотека кодирования : VirtualDubMod build 2550/release

Видео
Идентификатор : 0
Формат : MPEG-4 Visual
Профиль формата : Advanced Simple@L5
Параметр BVOP формата : 2
Параметр QPel формата : Нет
Параметр GMC формата : Без точки перехода
Параметр матрицы формата : Выборочная
Идентификатор кодека : XVID
Идентификатор кодека/Подсказка : XviD
Продолжительность : 50 м.
Битрейт : 1541 Кбит/сек
Ширина : 704 пикселя
Высота : 384 пикселя
Соотношение сторон : 1,85:1
Частота кадров : 25,000 кадров/сек
Цветовое пространство : YUV
Субдискретизация насыщенности : 4:2:0
Битовая глубина : 8 бит
Тип развёртки : Прогрессивная
Метод сжатия : С потерями
Бит/(Пиксели*Кадры) : 0.228
Размер потока : 561 Мбайт (88%)
Библиотека кодирования : XviD 73

Аудио
Идентификатор : 1
Формат : AC-3
Формат/Информация : Audio Coding 3
Расширение режима : CM (complete main)
Параметр Endianness формата : Big
Идентификатор кодека : 2000
Продолжительность : 50 м.
Вид битрейта : Постоянный
Битрейт : 192 Кбит/сек
Каналы : 2 канала
Расположение каналов : Front: L R
Частота : 48,0 КГц
Частота кадров : 31,250 кадров/сек (1536 spf)
Метод сжатия : С потерями
Размер потока : 70,0 Мбайт (11%)
Выравнивание : Разделение по промежуткам
Продолжительность промежутка : 40 мс. (1,00 видеокадр)
Время предзагрузки промежутка : 500 мс.
picpicpic
Для увеличения картинки щелкните мышкой по превью

Этот торрент недоступен для скачивания без регистрации, однако доступен по публичной magnet-ссылке (источники с публичных трекеров). Перед использованием ссылки прочтите, пожалуйста Пользовательское соглашение, а также как можно дольше оставайтесь на раздаче! Для того, чтобы скачать сам торрент-файл (который видит больше источников), а также для того, чтобы поблагодарить релизера, вам необходимо зарегистрироваться. Если регистрироваться лень - вы можете также попробовать скачать релиз по нашим партнерским ссылкам ниже.

[underverse.su].t68556.torrent
Трекер: Зарегистрирован   [ 01.08.2016 10:50 ]  

Статус: проверено (by makkol at 01.08.2016 13:01)
Поблагодарили: пока никто не поблагодарил...
Тип торрента: публичный - доступные источники с открытых трекеров: 
Размер: 635 MB (занимает 0,14 DVDR, для записи нужно 1 болванка DVDR/RW)
 
 

Яндекс.Метрика powered by Sphinx


В Н И М А Н И Е
Сайт не распространяет и не хранит электронные версии произведений, а лишь бесплатно и без коммерческой выгоды (не требуя взамен платы,
SMS и т.д.) предоставляет доступ к создаваемому пользователями каталогу ссылок на торрент-файлы, которые содержат только списки хеш-сумм.
Убедительная просьба с жалобами обращаться напрямую к пользователю, разместившему торрент файл.

Вверх