Loading...
Error

Эволюция / Evolution (Люсиль Хаджихалилович) [2015 г., драма, фантастика, мистика, ужасы, WEB-DL 1080p] VO

Статистика раздачи
Размер:  2,63 GB   |    Зарегистрирован:  1 год 4 месяца   |    Скачан:  14 раз

Полного источника не было: 9 месяцев

Сидов:  0  |  0 KB/s  ]   Личеров:  0  |  0 KB/s  ]

* - сиды/пиры с внешних источников

   
 
Автор Сообщение

makkol Пол:Муж

31-Июл-2016 11:56

Эволюция / Évolution


Год выпуска: 2015
Жанр: драма, фантастика, мистика, ужасы
Производство: Франция , Бельгия , Испания [Les Films du Worso, Noodles Production, Volcano Films]
Режиссер: Люсиль Хаджихалилович
В ролях: Маск Бребан, Роксан Дюран, Жюли-Мари Парментьер, Ниссим Ренард, Шанталь Эме, Лаура Балесторас
Сюжет фильма:
11-летний Николас живет со своей матерью на изолированном острове, населенном такими же мальчиками и их мамами. Николас исследует морское дно, чтобы найти там рыб, но находит тело. Или ему это только показалось, и вместо тела была лишь морская звезда? С каждым днем у Николаса появляется все больше вопросов и подозрений. Мальчиков помещают в больницу, в чьих зеленых стенах детей как будто бы от чего-то лечат, а, может, на самом деле женщины проводят над ними странный эксперимент, чтобы избавиться от собственного бремя материнства. Эволюция заходит туда, куда мы не могли себе представить. Синяя вода, белые дома, тени, желтый свет — дух захватывает от кадров невероятной красоты. Но тут же рядом иглы вонзаются в кожу, из носа течет кровь, мутирует тело…

  • Мировая премьера: 14 сентября 2015


Качество видео: WEB-DL 1080p

Продолжительность: 01:21:44
Формат: MKV
Видео: MPEG-4 AVC, 1912x796 (2.40:1), 24.000 fps, 4329 kbps
Аудио: русский, любительский одноголосый закадровый (МЕГАПЫХАРЬ), AC3 2.0, 48 kHz, 192 kbps
Субтитры: английские вшитые неотключаемые

Код:

Формат                                   : Matroska
Версия формата                           : Version 4 / Version 2
Размер файла                             : 2,63 Гбайт
Продолжительность                        : 1 ч. 21 м.
Общий поток                              : 4613 Кбит/сек
Дата кодирования                         : UTC 2016-07-19 17:38:17
Программа кодирования                    : mkvmerge v8.4.0 ('A better way to fly') 32bit
Библиотека кодирования                   : libebml v1.3.1 + libmatroska v1.4.2
DURATION                                 : 01:21:44.032000000
NUMBER_OF_FRAMES                         : 153251
NUMBER_OF_BYTES                          : 117696768
_STATISTICS_WRITING_APP                  : mkvmerge v8.4.0 ('A better way to fly') 32bit
_STATISTICS_WRITING_DATE_UTC             : 2016-07-19 17:38:17
_STATISTICS_TAGS                         : BPS DURATION NUMBER_OF_FRAMES NUMBER_OF_BYTES

Видео
Идентификатор                            : 1
Формат                                   : AVC
Формат/Информация                        : Advanced Video Codec
Профиль формата                          : High@L4
Параметр CABAC формата                   : Да
Параметр ReFrames формата                : 5 кадров
Идентификатор кодека                     : V_MPEG4/ISO/AVC
Продолжительность                        : 1 ч. 21 м.
Битрейт                                  : 4329 Кбит/сек
Ширина                                   : 1912 пикселей
Высота                                   : 796 пикселей
Соотношение сторон                       : 2,40:1
Режим частоты кадров                     : Постоянный
Частота кадров                           : 24,000 кадра/сек
Цветовое пространство                    : YUV
Субдискретизация насыщенности            : 4:2:0
Битовая глубина                          : 8 бит
Тип развёртки                            : Прогрессивная
Бит/(Пиксели*Кадры)                      : 0.119
Размер потока                            : 2,47 Гбайт (94%)
Язык                                     : English
Default                                  : Да
Forced                                   : Нет
Цветовой диапазон                        : Limited
Основные цвета                           : BT.709
Характеристики трансфера                 : BT.709
Коэффициенты матрицы                     : BT.709

Аудио
Идентификатор                            : 2
Формат                                   : AC-3
Формат/Информация                        : Audio Coding 3
Расширение режима                        : CM (complete main)
Параметр Endianness формата              : Big
Идентификатор кодека                     : A_AC3
Продолжительность                        : 1 ч. 21 м.
Вид битрейта                             : Постоянный
Битрейт                                  : 192 Кбит/сек
Каналы                                   : 2 канала
Расположение каналов                     : Front: L R
Частота                                  : 48,0 КГц
Метод сжатия                             : С потерями
Размер потока                            : 112 Мбайт (4%)
Default                                  : Да
Forced                                   : Нет

Меню
00:00:00.000                             : en:1
00:08:30.041                             : en:2
00:17:41.166                             : en:3
00:31:47.666                             : en:4
00:39:55.624                             : en:5
00:48:19.124                             : en:6
00:57:12.582                             : en:7
01:04:06.040                             : en:8
01:10:58.040                             : en:9
01:17:15.998                             : en:10
picpicpicpicpic
Для увеличения картинки щелкните мышкой по превью

Этот торрент недоступен для скачивания без регистрации, однако доступен по публичной magnet-ссылке (источники с публичных трекеров). Перед использованием ссылки прочтите, пожалуйста Пользовательское соглашение, а также как можно дольше оставайтесь на раздаче! Для того, чтобы скачать сам торрент-файл (который видит больше источников), а также для того, чтобы поблагодарить релизера, вам необходимо зарегистрироваться. Если регистрироваться лень - вы можете также попробовать скачать релиз по нашим партнерским ссылкам ниже.

[underverse.su].t68536.torrent
Трекер: Зарегистрирован   [ 31.07.2016 11:56 ]  

Статус: проверено (by makkol at 05.08.2016 22:57)
Поблагодарили: пока никто не поблагодарил...
Тип торрента: публичный - доступные источники с открытых трекеров: 
Размер: 2,63 GB (занимает 0,6 DVDR, для записи нужно 1 болванка DVDR/RW)
 
 
Похожие темы
Форум Тема Автор Торрент Отв. Посл. сооб.
Зарубежное кино [DVDRip, Low-Res HDRip, и т.д.] Эволюция / Evolution (Айвен Райтман) [2001 г., фантастика, комедия, HDTVRip] eXtatik
0 | 0

2 | 1054

5

31.05.2011 13:12

T Зарубежное кино [DVDRip, Low-Res HDRip, и т.д.] Эволюция / Evolution (Люсиль Хаджихалилович) [2015 г., драма, фантастика, мистика, ужасы, HDRip] MVO (iTunes) makkol
1 | 0

0 | 849

20

01.01.2017 11:07

Зарубежное кино [DVDRip, Low-Res HDRip, и т.д.] Эволюция / Evolution (Люсиль Хаджихалилович) [2015 г., драма, фантастика, мистика, ужасы, WEB-DLRip] VO makkol
0 | 0

0 | 563

21

31.07.2016 11:45

Зарубежные мультфильмы Эволюция / Pourquoi j'ai pas mange mon pere (Жамель Деббуз) [2015 г., мультфильм, комедия, приключения, семейный, HDRip] MVO makkol
43 | 0

0 | 818

21

25.07.2016 22:33

T Зарубежное кино [HDDVDRip / BDRip / WEB-DL / HDTV 1080/720р] Эволюция / Evolution (Люсиль Хаджихалилович) [2015 г., драма, фантастика, мистика, ужасы, BDRip 720p] MVO (iTunes) + Original makkol
0 | 0

0 | 725

7

01.01.2017 11:17

Мультфильмы [HDDVDRip / BDRip / WEB-DL / HDTV 1080/720р] Эволюция / Pourquoi j'ai pas mange mon pere (Жамель Деббуз) [2015 г., мультфильм, комедия, приключения, семейный, BDRip 720p] MVO makkol
1 | 0

0 | 635

5

25.07.2016 22:49

Мультфильмы [HDDVDRip / BDRip / WEB-DL / HDTV 1080/720р] Эволюция / Pourquoi j'ai pas mange mon pere (Жамель Деббуз) [2015 г., мультфильм, комедия, приключения, семейный, BDRip 1080p] MVO makkol
7 | 0

0 | 763

7

25.07.2016 22:56


Яндекс.Метрика powered by Sphinx


В Н И М А Н И Е
Сайт не распространяет и не хранит электронные версии произведений, а лишь бесплатно и без коммерческой выгоды (не требуя взамен платы,
SMS и т.д.) предоставляет доступ к создаваемому пользователями каталогу ссылок на торрент-файлы, которые содержат только списки хеш-сумм.
Убедительная просьба с жалобами обращаться напрямую к пользователю, разместившему торрент файл.

Вверх