Loading...
Error

Амурский тигр. Путь к священной горе (Вадим Витовцев) [2016 г., документальный, природа, флора, фауна, SatRip]

Статистика раздачи
Размер:  714 MB   |    Зарегистрирован:  4 месяца 6 дней   |    Скачан:  3 раза

Полного источника не было: 10 дней

Сидов:  0  |  0 KB/s  ]   Личеров:  0  |  0 KB/s  ]

* - сиды/пиры с внешних источников

   
 
Автор Сообщение

ARI71 Пол:Муж

30-Июл-2016 10:55

Амурский тигр. Путь к священной горе


Год выпуска: 2016
Жанр: документальный, природа, флора, фауна
Страна: Россия Единая медиа группа
Режиссер: Вадим Витовцев
Сюжет фильма:
Дальний Восток России. На склонах гор Сихотэ-Алиня застыла первозданная уссурийская тайга. Удивительный мир: в нем причудливым образом сочетаются суровые сибирские леса и субтропики. В их непроходимых зарослях тысячелетиями природа разыгрывает таинственный спектакль. Древняя удэгейская легенда гласит: "На закате своих дней тигры уходят умирать на вершину священной горы. Таков закон, установленный Творцом всего живого". Даже биологам трудно оспорить легенду о тигриной усыпальнице, ведь никто и никогда не видел в тайге прах умершего естественной смертью амурского тигра. Долгие годы ученые не могут найти священную тигриную гору, а коренные жители Дальнего Востока даже под страхом смерти не станут тревожить дух хозяина тайги. Ведь амурский тигр для аборигенов - не просто хищник, а божество, которого почитают и боятся. Съемочная группа вместе с молодым ученым и охотником-удэгейцем отправляется в нехоженые дебри уссурийской тайги на поиски таинственной горы, на которой по поверью тигры находят вечный покой.
Качество видео: SatRip

Продолжительность: 00:51:27
Формат: AVI
Видео: XviD, 720x448, ~1798 kbps
Аудио: русский, (оригинал), MP3 2.0, ~128.00 kbps

Код:

Общее
Полное имя : D:\Amurskiy.Tigr.Put.K.Svyashchennoy.Gore.avi
Формат : AVI
Формат/Информация : Audio Video Interleave
Размер файла : 714 Мбайт
Продолжительность : 51 м.
Общий поток : 1939 Кбит/сек
Программа кодирования : Lavf54.63.104

Видео
Идентификатор : 0
Формат : xvid
Идентификатор кодека : xvid
Продолжительность : 51 м.
Битрейт : 1798 Кбит/сек
Ширина : 720 пикселей
Высота : 448 пикселей
Соотношение сторон : 16:10
Частота кадров : 25,000 кадров/сек
Тип развёртки : Прогрессивная
Бит/(Пиксели*Кадры) : 0.223
Размер потока : 662 Мбайт (93%)

Аудио
Идентификатор : 1
Формат : MPEG Audio
Версия формата : Version 1
Профиль формата : Layer 3
Режим : Joint stereo
Расширение режима : MS Stereo
Идентификатор кодека : 55
Идентификатор кодека/Подсказка : MP3
Продолжительность : 51 м.
Вид битрейта : Постоянный
Битрейт : 128 Кбит/сек
Каналы : 2 канала
Частота : 48,0 КГц
Метод сжатия : С потерями
Размер потока : 47,1 Мбайт (7%)
Выравнивание : Соединение по промежуткам
Продолжительность промежутка : 24 мс. (0,60 видеокадр)
picpicpicpic
Для увеличения картинки щелкните мышкой по превью

Этот торрент недоступен для скачивания без регистрации, однако доступен по публичной magnet-ссылке (источники с публичных трекеров). Перед использованием ссылки прочтите, пожалуйста Пользовательское соглашение, а также как можно дольше оставайтесь на раздаче! Для того, чтобы скачать сам торрент-файл (который видит больше источников), а также для того, чтобы поблагодарить релизера, вам необходимо зарегистрироваться. Если регистрироваться лень - вы можете также попробовать скачать релиз по нашим партнерским ссылкам ниже.

[underverse.su].t68515.torrent
Трекер: Зарегистрирован   [ 30.07.2016 10:55 ]  

Статус: проверено (by makkol at 30.07.2016 11:19)
Поблагодарили: пока никто не поблагодарил...
Тип торрента: публичный - доступные источники с открытых трекеров: 
Размер: 714 MB (занимает 0,16 DVDR, для записи нужно 1 болванка DVDR/RW)
 
 

Яндекс.Метрика powered by Sphinx


В Н И М А Н И Е
Сайт не распространяет и не хранит электронные версии произведений, а лишь бесплатно и без коммерческой выгоды (не требуя взамен платы,
SMS и т.д.) предоставляет доступ к создаваемому пользователями каталогу ссылок на торрент-файлы, которые содержат только списки хеш-сумм.
Убедительная просьба с жалобами обращаться напрямую к пользователю, разместившему торрент файл.

Вверх