Loading...
Error

Речные монстры / River monster (8 сезон: 1-7 серии) / (Барни Ревилл, Доминик Уэстон) [2016 г., документальный, рыбалка, путешествия, география, природа, HDTVRip] Dub

Статистика раздачи
Размер:  3,74 GB   |    Зарегистрирован:  4 месяца 4 дня   |    Скачан:  1 раз

Полного источника не было: 2 дня 22 часа

Сидов:  0  |  0 KB/s  ]   Личеров:  0  |  0 KB/s  ]

* - сиды/пиры с внешних источников

   
 
Автор Сообщение

ARI71 Пол:Муж

30-Июл-2016 08:07

Речные монстры / River monster (8 сезон: 1-7 серии)


Год выпуска: 2016
Жанр: документальный, рыбалка, путешествия, география, природа
Страна: США Discovery Channel
Режиссер: Барни Ревилл, Доминик Уэстон, Шарлотта Джонс
Ведущий: Джереми Вэйд
Сюжет фильма:
Джереми Вэйд отправляется на поиски новых пугающих пресноводных созданий, путешествуя по всему миру. Рыбак-экстремал собирает легенды и истории о таинственных и грозных рыбах, обитающих в реках и озерах, а затем выясняет, что за ними стоит. Встречайте новые загадки природы и посмотрите, как Джереми находит ответ с помощью рыбалки! В новом сезоне Джереми едет в Юго-Восточную Азию: по слухам, в водах меконга живет рыба, которая способна утащить человека под воду. Затем события разворачиваются в дельте африканской реки Окаванго, где стаи водных хищников якобы переворачивают лодки. Тем временем ужасающие новости приходят из архипелага Флорида-Кис – люди боятся зайти в воду из-за существа, которое нагоняет страх на всю округу. Кроме того, рыболов попытается раскрыть тайну «голубых дыр» на райских Багамах, где хищные рыбы атакуют пловцов. Наконец, Джереми Вэйд побывает в Канаде, где ходят слухи о семиметровом озерном монстре – действительно ли он настолько огромен?


Качество видео: HDTVRip

Продолжительность: 7 х ~ 00:44:00
Формат: AVI
Видео: XviD, 720x400, ~1542 kbps
Аудио: русский, (дублированный), AC3 2.0, ~192.00 kbps
(тех. данные всех серий идентичны)
Раздача ведётся путём добавления новых серий; при каждом добавлении создаётся новый торрент. Чтобы начать докачку новой серии, пользователям необходимо сделать следующее:

- Остановить скачивание.
- Удалить старый торрент у себя из клиента (старые серии удалять не надо).
- Скачать новый торрент и запустить его у себя в клиенте вместо старого, при этом указать клиенту путь в старую папку куда и должно происходить скачивание новых серий.

Ваш клиент при этом должен произвести хеширование (проверку) старой папки (если не производит сам - помогите ему сделать это), и будет докачивать только те серии которых у вас ещё нет. Старые серии при этом не удаляются, а продолжают раздаваться!
Если вы уже удалили старые серии, то предотвратить повторную закачку старых серий можно, отжав галочку в соответствующих местах при запуске нового торрента. По возможности, желательно не удалять старые серии как можно дольше, чтобы релизер не столько продолжал раздавать старые серии, а смог сконцентрироваться на новых.

Код:

Общее
Полное имя : D:\Речные монстры S08 HitWay\01 Речные монстры.avi
Формат : AVI
Формат/Информация : Audio Video Interleave
Размер файла : 544 Мбайт
Продолжительность : 43 м.
Общий поток : 1745 Кбит/сек
Программа кодирования : VirtualDubMod 1.5.10.3 | www.virtualdub-fr.org || (build 2550/release)
Библиотека кодирования : VirtualDubMod build 2550/release

Видео
Идентификатор : 0
Формат : MPEG-4 Visual
Профиль формата : Advanced Simple@L5
Параметр BVOP формата : 1
Параметр QPel формата : Нет
Параметр GMC формата : Без точки перехода
Параметр матрицы формата : Выборочная
Идентификатор кодека : XVID
Идентификатор кодека/Подсказка : XviD
Продолжительность : 43 м.
Битрейт : 1542 Кбит/сек
Ширина : 720 пикселей
Высота : 400 пикселей
Соотношение сторон : 16:9
Частота кадров : 30,000 кадров/сек
Цветовое пространство : YUV
Субдискретизация насыщенности : 4:2:0
Битовая глубина : 8 бит
Тип развёртки : Прогрессивная
Метод сжатия : С потерями
Бит/(Пиксели*Кадры) : 0.178
Размер потока : 481 Мбайт (88%)
Библиотека кодирования : XviD 73

Аудио
Идентификатор : 1
Формат : AC-3
Формат/Информация : Audio Coding 3
Расширение режима : CM (complete main)
Параметр Endianness формата : Big
Идентификатор кодека : 2000
Продолжительность : 43 м.
Вид битрейта : Постоянный
Битрейт : 192 Кбит/сек
Каналы : 2 канала
Расположение каналов : Front: L R
Частота : 48,0 КГц
Частота кадров : 31,250 кадров/сек (1536 spf)
Метод сжатия : С потерями
Размер потока : 59,9 Мбайт (11%)
Выравнивание : Разделение по промежуткам
Продолжительность промежутка : 33 мс. (1,00 видеокадр)
Время предзагрузки промежутка : 500 мс.
01. Бритвоголовый.
02. Ужас в раю.
03. Глубинный дьявол.
04. Морской демон.
05. Смерть под толщей воды.
06. Морские секреты. (спецвыпуск)
07. Монстры внутри.
picpicpicpicpic
Для увеличения картинки щелкните мышкой по превью

Этот торрент недоступен для скачивания без регистрации, однако доступен по публичной magnet-ссылке (источники с публичных трекеров). Перед использованием ссылки прочтите, пожалуйста Пользовательское соглашение, а также как можно дольше оставайтесь на раздаче! Для того, чтобы скачать сам торрент-файл (который видит больше источников), а также для того, чтобы поблагодарить релизера, вам необходимо зарегистрироваться. Если регистрироваться лень - вы можете также попробовать скачать релиз по нашим партнерским ссылкам ниже.

[underverse.su].t68584.torrent
Трекер: Зарегистрирован   [ 03.08.2016 08:48 ]  

Статус: T временная (by makkol at 03.08.2016 11:21)
Поблагодарили: пока никто не поблагодарил...
Тип торрента: публичный - доступные источники с открытых трекеров: 
Размер: 3,74 GB (занимает 0,85 DVDR, для записи нужно 1 болванка DVDR/RW)
 
 
Похожие темы
Форум Тема Автор Торрент Отв. Посл. сооб.
T Discovery Речные монстры (8 сезон: 1-7 серии) / River monster (Барни Ревилл, Доминик Уэстон) [2016 г., документальный, рыбалка, путешествия, география, природа, приключения, HDTVRip 720p] Dub ARI71
8 | 1

0 | 778

2

03.08.2016 11:40

ARI71 Пол:Муж

03-Авг-2016 08:56

Добавлена 7-я серия. Обновите торрент-файл!

Приятного всем просмотра!


Яндекс.Метрика powered by Sphinx


В Н И М А Н И Е
Сайт не распространяет и не хранит электронные версии произведений, а лишь бесплатно и без коммерческой выгоды (не требуя взамен платы,
SMS и т.д.) предоставляет доступ к создаваемому пользователями каталогу ссылок на торрент-файлы, которые содержат только списки хеш-сумм.
Убедительная просьба с жалобами обращаться напрямую к пользователю, разместившему торрент файл.

Вверх