Loading...
Error

Красные крабы. Жёлтые муравьи / Red Crabs. Crazy Ants (Майк Пайпер) [2000 г., документальный, флора, фауна, SatRip] VO

Статистика раздачи
Размер:  645 MB   |    Зарегистрирован:  4 месяца 9 дней   |    Скачан:  2 раза

Полного источника не было: 1 месяц 30 дней

Сидов:  0  |  0 KB/s  ]   Личеров:  0  |  0 KB/s  ]

* - сиды/пиры с внешних источников

   
 
Автор Сообщение

ARI71 Пол:Муж

30-Июл-2016 06:52

Красные крабы. Жёлтые муравьи / Red Crabs. Crazy Ants


Год выпуска: 2000
Жанр: документальный, флора, фауна
Страна: Австралия , Новая Зеландия Телеканал "OCEAN-ТV"
Режиссер: Майк Пайпер
Сюжет фильма:
Остров Рождества являет собой отдаленный, гористый кусочек суши в Индийском океане к западу от Австралии. Его красные крабы одно из самых ярких биологических чудес света. Вот уже бессчетные тысячи лет эти существа каждый год десятками миллионов перемещаются из лесов острова к берегу чтобы метать икру. Но сейчас красным крабам и их уникальной островной экосистеме грозит беда, причина которой маленький, но смертоносный враг - желтый муравей.
Качество видео: SatRip

Продолжительность: 00:51:53
Формат: AVI
Видео: XviD, 704x400, ~1600 kbps
Аудио: русский, одноголосый (профессиональный), MP3 2.0, ~128.00 kbps

Код:

Общее
Полное имя : D:\Krasnye.kraby.Zheltye.muravji.2000.XviD.SATRip.avi
Формат : AVI
Формат/Информация : Audio Video Interleave
Размер файла : 645 Мбайт
Продолжительность : 51 м.
Общий поток : 1737 Кбит/сек
Программа кодирования : VirtualDubMod 1.5.10.3 | www.virtualdub-fr.org || (build 2550/release)
Библиотека кодирования : VirtualDubMod build 2550/release

Видео
Идентификатор : 0
Формат : MPEG-4 Visual
Профиль формата : Advanced Simple@L5
Параметр BVOP формата : 2
Параметр QPel формата : Нет
Параметр GMC формата : Без точки перехода
Параметр матрицы формата : Default (H.263)
Идентификатор кодека : XVID
Идентификатор кодека/Подсказка : XviD
Продолжительность : 51 м.
Битрейт : 1600 Кбит/сек
Ширина : 704 пикселя
Высота : 400 пикселей
Соотношение сторон : 16:9
Частота кадров : 25,000 кадров/сек
Цветовое пространство : YUV
Субдискретизация насыщенности : 4:2:0
Битовая глубина : 8 бит
Тип развёртки : Прогрессивная
Метод сжатия : С потерями
Бит/(Пиксели*Кадры) : 0.227
Размер потока : 594 Мбайт (92%)
Библиотека кодирования : XviD 63

Аудио
Идентификатор : 1
Формат : MPEG Audio
Версия формата : Version 1
Профиль формата : Layer 3
Идентификатор кодека : 55
Идентификатор кодека/Подсказка : MP3
Продолжительность : 51 м.
Вид битрейта : Постоянный
Битрейт : 128 Кбит/сек
Каналы : 2 канала
Частота : 48,0 КГц
Метод сжатия : С потерями
Размер потока : 47,5 Мбайт (7%)
Выравнивание : Соединение по промежуткам
Продолжительность промежутка : 40 мс. (1,00 видеокадр)
Время предзагрузки промежутка : 504 мс.
Библиотека кодирования : LAME3.98r
Настройки программы : -m s -V 4 -q 0 -lowpass 17 -b 128
picpicpicpicpic
Для увеличения картинки щелкните мышкой по превью

Этот торрент недоступен для скачивания без регистрации, однако доступен по публичной magnet-ссылке (источники с публичных трекеров). Перед использованием ссылки прочтите, пожалуйста Пользовательское соглашение, а также как можно дольше оставайтесь на раздаче! Для того, чтобы скачать сам торрент-файл (который видит больше источников), а также для того, чтобы поблагодарить релизера, вам необходимо зарегистрироваться. Если регистрироваться лень - вы можете также попробовать скачать релиз по нашим партнерским ссылкам ниже.

[underverse.su].t68511.torrent
Трекер: Зарегистрирован   [ 30.07.2016 06:52 ]  

Статус: проверено (by makkol at 30.07.2016 08:29)
Поблагодарили: пока никто не поблагодарил...
Тип торрента: публичный - доступные источники с открытых трекеров: 
Размер: 645 MB (занимает 0,14 DVDR, для записи нужно 1 болванка DVDR/RW)
 
 

Яндекс.Метрика powered by Sphinx


В Н И М А Н И Е
Сайт не распространяет и не хранит электронные версии произведений, а лишь бесплатно и без коммерческой выгоды (не требуя взамен платы,
SMS и т.д.) предоставляет доступ к создаваемому пользователями каталогу ссылок на торрент-файлы, которые содержат только списки хеш-сумм.
Убедительная просьба с жалобами обращаться напрямую к пользователю, разместившему торрент файл.

Вверх