Loading...
Error

Память сердца. Инна Макарова (Ирина Галынкина) [2001 г., документальный, биография, культура, история, SatRip]

Статистика раздачи
Размер:  371 MB   |    Зарегистрирован:  4 месяца 9 дней   |    Скачан:  0 раз

Полного источника не было: 4 месяца 9 дней

Сидов:  0  |  0 KB/s  ]   Личеров:  0  |  0 KB/s  ]

* - сиды/пиры с внешних источников

   
 
Автор Сообщение

ARI71 Пол:Муж

29-Июл-2016 06:53

Память сердца. Инна Макарова


Год выпуска: 2001
Жанр: документальный, биография, культура, история
Страна: Россия Телекомпания "Альма Матер"
Режиссер: Ирина Галынкина
В ролях: Инна Макарова
Сюжет фильма:
В передаче "Память сердца" герои расскажут о своих прожитых годах, о личной жизни, о встречах, определивших их судьбу, о своём детстве.

Инна Владимировна Мака́рова (род. 28 июля 1926, г. Тайга, Сибирский край, СССР) — советская и российская киноактриса. Народная артистка СССР (1985). Лауреат Сталинской премии первой степени (1949).

Качество видео: SatRip

Продолжительность: 00:25:57
Формат: AVI
Видео: XviD, 704x528, ~1800 kbps
Аудио: русский, (оригинал), MP3 2.0, ~192.00 kbps

Код:

Общее
Полное имя : D:\Pamyat.serdca.Inna.Makarova.2001.XviD.SATRip.fenixclub.avi
Формат : AVI
Формат/Информация : Audio Video Interleave
Размер файла : 371 Мбайт
Продолжительность : 25 м.
Общий поток : 2002 Кбит/сек
Программа кодирования : VirtualDubMod 1.5.10.3 | www.virtualdub-fr.org || (build 2550/release)
Библиотека кодирования : VirtualDubMod build 2550/release

Видео
Идентификатор : 0
Формат : MPEG-4 Visual
Профиль формата : Advanced Simple@L5
Параметр BVOP формата : 1
Параметр QPel формата : Нет
Параметр GMC формата : Без точки перехода
Параметр матрицы формата : Default (MPEG)
Идентификатор кодека : XVID
Идентификатор кодека/Подсказка : XviD
Продолжительность : 25 м.
Битрейт : 1800 Кбит/сек
Ширина : 704 пикселя
Высота : 528 пикселей
Соотношение сторон : 4:3
Частота кадров : 25,000 кадров/сек
Цветовое пространство : YUV
Субдискретизация насыщенности : 4:2:0
Битовая глубина : 8 бит
Тип развёртки : Прогрессивная
Метод сжатия : С потерями
Бит/(Пиксели*Кадры) : 0.194
Размер потока : 334 Мбайт (90%)
Библиотека кодирования : XviD 1.2.1 (UTC 2008-12-04)

Аудио
Идентификатор : 1
Формат : MPEG Audio
Версия формата : Version 1
Профиль формата : Layer 3
Идентификатор кодека : 55
Идентификатор кодека/Подсказка : MP3
Продолжительность : 25 м.
Вид битрейта : Постоянный
Битрейт : 192 Кбит/сек
Каналы : 2 канала
Частота : 48,0 КГц
Метод сжатия : С потерями
Размер потока : 35,6 Мбайт (10%)
Выравнивание : Соединение по промежуткам
Продолжительность промежутка : 40 мс. (1,00 видеокадр)
Время предзагрузки промежутка : 504 мс.
Библиотека кодирования : L3.99r
Настройки программы : -m s -V 4 -q 2 -lowpass 18.6 -b 192
picpicpicpicpic
Для увеличения картинки щелкните мышкой по превью

Этот торрент недоступен для скачивания без регистрации, однако доступен по публичной magnet-ссылке (источники с публичных трекеров). Перед использованием ссылки прочтите, пожалуйста Пользовательское соглашение, а также как можно дольше оставайтесь на раздаче! Для того, чтобы скачать сам торрент-файл (который видит больше источников), а также для того, чтобы поблагодарить релизера, вам необходимо зарегистрироваться. Если регистрироваться лень - вы можете также попробовать скачать релиз по нашим партнерским ссылкам ниже.

[underverse.su].t68488.torrent
Трекер: Зарегистрирован   [ 29.07.2016 06:53 ]  

Статус: проверено (by makkol at 29.07.2016 11:34)
Поблагодарили: пока никто не поблагодарил...
Тип торрента: публичный - доступные источники с открытых трекеров: 
Размер: 371 MB (занимает 0,08 DVDR, для записи нужно 1 болванка DVDR/RW)
 
 
Похожие темы
Форум Тема Автор Торрент Отв. Посл. сооб.
xUSSR сериалы Память сердца / Серии: 1-2 из 2 (Артем Насыбулин) [2014 г., Мелодрама, HDTVRip] Ведьмочка
1 | 0

0 | 517

8

08.08.2014 18:02


Яндекс.Метрика powered by Sphinx


В Н И М А Н И Е
Сайт не распространяет и не хранит электронные версии произведений, а лишь бесплатно и без коммерческой выгоды (не требуя взамен платы,
SMS и т.д.) предоставляет доступ к создаваемому пользователями каталогу ссылок на торрент-файлы, которые содержат только списки хеш-сумм.
Убедительная просьба с жалобами обращаться напрямую к пользователю, разместившему торрент файл.

Вверх