Loading...
Error

Совершенно секретно. XXI век. Артем Боровик. 10 лет спустя (Ольга Грачева) [2010 г., документальная телепередача, расследование, TVRip]

Статистика раздачи
Размер:  685 MB   |    Зарегистрирован:  4 месяца 8 дней   |    Скачан:  1 раз

Полного источника не было: 4 месяца 1 день

Сидов:  0  |  0 KB/s  ]   Личеров:  0  |  0 KB/s  ]

* - сиды/пиры с внешних источников

   
 
Автор Сообщение

ARI71 Пол:Муж

28-Июл-2016 11:17

Совершенно секретно. XXI век. Артем Боровик. 10 лет спустя


Год выпуска: 2010
Жанр: документальная телепередача, расследование
Страна: Россия "Совершенно секретно"
Режиссер: Ольга Грачева
Сюжет фильма:
Программа посвящена событиям 9 марта 2000 г. - авиакатастрофе, в которой погиб журналист Артём Боровик, глава медиахолдинга Совершенно секретно, основатель одноименной телекомпании. Ведущий Леонид Велехов. Гости эфира журналист Владимир Кара-Мурза и летчик-испытатель, Герой России Магомед Толбоев.

Артём Ге́нрихович Борови́к (13 сентября 1960 — 9 марта 2000) — российский журналист, президент издательского холдинга «Совершенно секретно».

Качество видео: TVRip

Продолжительность: 01:11:37
Формат: AVI
Видео: DivX 5, 720x576, ~1200 kbps
Аудио: русский, (оригинал), AC3 2.0, ~128.00 kbps

Код:

Общее
Полное имя : D:\Совершенно секретно - XXI век. Артем Боровик. 10 лет спустя (TVRip by Ramm-80).avi
Формат : AVI
Формат/Информация : Audio Video Interleave
Размер файла : 685 Мбайт
Продолжительность : 1 ч. 11 м.
Общий поток : 1338 Кбит/сек
Программа кодирования : Nandub v1.0rc2
Библиотека кодирования : Nandub build 1853/release

Видео
Идентификатор : 0
Формат : MPEG-4 Visual
Параметр BVOP формата : 1
Параметр QPel формата : Нет
Параметр GMC формата : Без точки перехода
Параметр матрицы формата : Default (H.263)
Режим смешивания : Сжатый битовый поток
Идентификатор кодека : DX50
Идентификатор кодека/Подсказка : DivX 5
Продолжительность : 1 ч. 11 м.
Битрейт : 1200 Кбит/сек
Ширина : 720 пикселей
Высота : 576 пикселей
Соотношение сторон : 5:4
Частота кадров : 25,000 кадров/сек
Стандарт вещания : PAL
Цветовое пространство : YUV
Субдискретизация насыщенности : 4:2:0
Битовая глубина : 8 бит
Тип развёртки : Прогрессивная
Метод сжатия : С потерями
Бит/(Пиксели*Кадры) : 0.116
Размер потока : 615 Мбайт (90%)
Библиотека кодирования : DivX 6.8.3-6.8.4 (UTC 2008-06-07)

Аудио
Идентификатор : 1
Формат : AC-3
Формат/Информация : Audio Coding 3
Расширение режима : CM (complete main)
Параметр Endianness формата : Big
Идентификатор кодека : 2000
Продолжительность : 1 ч. 11 м.
Вид битрейта : Постоянный
Битрейт : 128 Кбит/сек
Каналы : 2 канала
Расположение каналов : Front: L R
Частота : 48,0 КГц
Частота кадров : 31,250 кадров/сек (1536 spf)
Метод сжатия : С потерями
Размер потока : 65,6 Мбайт (10%)
Выравнивание : Разделение по промежуткам
Продолжительность промежутка : 40 мс. (1,00 видеокадр)
Время предзагрузки промежутка : 500 мс.
picpicpicpicpic
Для увеличения картинки щелкните мышкой по превью

Этот торрент недоступен для скачивания без регистрации, однако доступен по публичной magnet-ссылке (источники с публичных трекеров). Перед использованием ссылки прочтите, пожалуйста Пользовательское соглашение, а также как можно дольше оставайтесь на раздаче! Для того, чтобы скачать сам торрент-файл (который видит больше источников), а также для того, чтобы поблагодарить релизера, вам необходимо зарегистрироваться. Если регистрироваться лень - вы можете также попробовать скачать релиз по нашим партнерским ссылкам ниже.

[underverse.su].t68471.torrent
Трекер: Зарегистрирован   [ 28.07.2016 11:17 ]  

Статус: проверено (by makkol at 28.07.2016 11:47)
Поблагодарили: пока никто не поблагодарил...
Тип торрента: публичный - доступные источники с открытых трекеров: 
Размер: 685 MB (занимает 0,15 DVDR, для записи нужно 1 болванка DVDR/RW)
 
 
Похожие темы
Форум Тема Автор Торрент Отв. Посл. сооб.
Информационно-аналитические передачи Совершенно секретно. Серые кардиналы: Александр Руцкой [2007, телепередача, TVRip] матроскин
0 | 0

1 | 685

0

27.04.2013 12:11

Информационно-аналитические передачи Совершенно секретно. Президентские выборы-2012 [2012, телепередача, TVRip] матроскин
0 | 0

1 | 686

6

30.04.2013 14:15

Другие фильмы Совершенно секретно. Александр Зиновьев [1994 г., документальный, TVRip] матроскин
0 | 0

1 | 540

9

27.04.2013 09:34

Другие фильмы Совершенно секретно. Дедовщина [1998, документальный, VHSRip] матроскин
0 | 0

1 | 650

7

30.04.2013 13:51

Другие фильмы Совершенно секретно. Спецслужбы олигархов [2007, документальный, TVRip] матроскин
0 | 0

1 | 501

8

30.04.2013 15:18

Другие фильмы Совершенно секретно. Рос пильное дело [2011, телепередача, TVRip] матроскин
0 | 0

1 | 1084

0

30.04.2013 15:28


Яндекс.Метрика powered by Sphinx


В Н И М А Н И Е
Сайт не распространяет и не хранит электронные версии произведений, а лишь бесплатно и без коммерческой выгоды (не требуя взамен платы,
SMS и т.д.) предоставляет доступ к создаваемому пользователями каталогу ссылок на торрент-файлы, которые содержат только списки хеш-сумм.
Убедительная просьба с жалобами обращаться напрямую к пользователю, разместившему торрент файл.

Вверх