Loading...
Error

Вадим Туманов. Нокаут (Владимир Мелетин) [2008 г., документальный, история, биография, SatRip]

Статистика раздачи
Размер:  500 MB   |    Зарегистрирован:  1 год 3 месяца   |    Скачан:  1 раз

Полного источника не было: 9 месяцев

Сидов:  0  |  0 KB/s  ]   Личеров:  0  |  0 KB/s  ]

* - сиды/пиры с внешних источников

   
 
Автор Сообщение

ARI71 Пол:Муж

28-Июл-2016 06:30

Вадим Туманов. Нокаут


Год выпуска: 2008
Жанр: документальный, история, биография
Страна: Россия ООО "Арт-Нуво студия"
Режиссер: Владимир Мелетин
В ролях: Вадим Туманов
Сюжет фильма:
О трагической судьбе Вадима Туманова, лучшего друга Владимира Высоцкого, посвятившего ему множество песен и написавшего книгу по его воспоминаниям "Черная Свеча". Невинная жертва сталинского режима, узник колымских лагерей. После снятия судимости, Туманов возглавил передовую бригаду старателей. За успехи в добычи золота подвергся новым репрессиям.

Вади́м Ива́нович Тума́нов (род. 1 сентября 1927 года, Белая Церковь, Киевская губерния, УССР, СССР) — российский предприниматель, золотопромышленник. (Вадим Туманов был другом Владимира Высоцкого)

Качество видео: SatRip

Продолжительность: 00:39:57
Формат: AVI
Видео: XviD, 704x528, ~1614 kbps
Аудио: русский, (оригинал), MP3 2.0, ~128.00 kbps

Код:

Общее
Полное имя : D:\Культура_Нокаут. Вадим Туманов.avi
Формат : AVI
Формат/Информация : Audio Video Interleave
Размер файла : 500 Мбайт
Продолжительность : 39 м.
Общий поток : 1750 Кбит/сек
Программа кодирования : VirtualDubMod 1.5.4.1 (build 2178/release)
Библиотека кодирования : VirtualDubMod build 2178/release

Видео
Идентификатор : 0
Формат : MPEG-4 Visual
Профиль формата : Advanced Simple@L5
Параметр BVOP формата : 1
Параметр QPel формата : Нет
Параметр GMC формата : Без точки перехода
Параметр матрицы формата : Выборочная
Идентификатор кодека : XVID
Идентификатор кодека/Подсказка : XviD
Продолжительность : 39 м.
Битрейт : 1614 Кбит/сек
Ширина : 704 пикселя
Высота : 528 пикселей
Соотношение сторон : 4:3
Частота кадров : 25,000 кадров/сек
Цветовое пространство : YUV
Субдискретизация насыщенности : 4:2:0
Битовая глубина : 8 бит
Тип развёртки : Прогрессивная
Метод сжатия : С потерями
Бит/(Пиксели*Кадры) : 0.174
Размер потока : 461 Мбайт (92%)
Библиотека кодирования : XviD 1.2.1 (UTC 2008-12-04)

Аудио
Идентификатор : 1
Формат : MPEG Audio
Версия формата : Version 1
Профиль формата : Layer 3
Режим : Joint stereo
Расширение режима : MS Stereo
Идентификатор кодека : 55
Идентификатор кодека/Подсказка : MP3
Продолжительность : 39 м.
Вид битрейта : Постоянный
Битрейт : 128 Кбит/сек
Каналы : 2 канала
Частота : 48,0 КГц
Метод сжатия : С потерями
Размер потока : 36,6 Мбайт (7%)
Выравнивание : Соединение по промежуткам
Продолжительность промежутка : 80 мс. (2,00 видеокадра)
Время предзагрузки промежутка : 504 мс.
Библиотека кодирования : LAME3.98r
Настройки программы : -m j -V 4 -q 2 -lowpass 17 -b 128
picpicpicpicpic
Для увеличения картинки щелкните мышкой по превью

Этот торрент недоступен для скачивания без регистрации, однако доступен по публичной magnet-ссылке (источники с публичных трекеров). Перед использованием ссылки прочтите, пожалуйста Пользовательское соглашение, а также как можно дольше оставайтесь на раздаче! Для того, чтобы скачать сам торрент-файл (который видит больше источников), а также для того, чтобы поблагодарить релизера, вам необходимо зарегистрироваться. Если регистрироваться лень - вы можете также попробовать скачать релиз по нашим партнерским ссылкам ниже.

[underverse.su].t68467.torrent
Трекер: Зарегистрирован   [ 28.07.2016 06:30 ]  

Статус: проверено (by makkol at 28.07.2016 08:36)
Поблагодарили: пока никто не поблагодарил...
Тип торрента: публичный - доступные источники с открытых трекеров: 
Размер: 500 MB (занимает 0,11 DVDR, для записи нужно 1 болванка DVDR/RW)
 
 

Яндекс.Метрика powered by Sphinx


В Н И М А Н И Е
Сайт не распространяет и не хранит электронные версии произведений, а лишь бесплатно и без коммерческой выгоды (не требуя взамен платы,
SMS и т.д.) предоставляет доступ к создаваемому пользователями каталогу ссылок на торрент-файлы, которые содержат только списки хеш-сумм.
Убедительная просьба с жалобами обращаться напрямую к пользователю, разместившему торрент файл.

Вверх