Loading...
Error

Славные парни / The Nice Guys (Шейн Блэк) [2016 г., криминал, комедия, WEB-DLRip] Dub (iTunes)

Статистика раздачи
Размер:  1,45 GB   |    Зарегистрирован:  4 месяца 9 дней   |    Скачан:  60 раз
Сидов:  1  |  0 KB/s  ]   Личеров:  0  |  0 KB/s  ]

* - сиды/пиры с внешних источников

   
 
Автор Сообщение

makkol Пол:Муж

27-Июл-2016 22:35

Славные парни / The Nice Guys
«Симпатичная пара»


Год выпуска: 2016
Производство: США , Великобритания [Bloom, Lip Sync Productions, Misty Mountains]
Жанр: криминал, комедия
Режиссер: Шейн Блэк
В ролях: Райан Гослинг, Ким Бейсингер, Расселл Кроу, Энгаури Райс, Мэтт Бомер, Маргарет Куэлли, Йайа ДаКоста, Кит Дэвид, Бо Напп, Лоис Смит
Сюжет фильма:
Что может объединять два совершенно разных человека - частного сыщика Марчи Холланда, и наёмного вышибалу Хили Джексона? Лос-Анджелес 1970 год, два кажется несвязанных между собой дела, которые взялись расследовать эти два разных по профессиям человека, пропажа девушки, и смерть порнозвезды. В ходе расследования, нити этих дел приведут к шокирующему результату, о заговоре в высших эшелонов власти.

  • Мировая премьера: 15 мая 2016
  • Российская премьера: 16 июня 2016


Качество видео: WEB-DLRip

Продолжительность: 01:51:03
Формат: AVI
Видео: XviD, 720x304 (2.35:1), 25.000 fps, 1482 kbps
Аудио: русский, дублированный (iTunes), AC3 5.1, 48 kHz, 384 kbps

Код:

Формат                                   : AVI
Формат/Информация                        : Audio Video Interleave
Размер файла                             : 1,45 Гбайт
Продолжительность                        : 1 ч. 51 м.
Общий поток                              : 1876 Кбит/сек
Программа кодирования                    : VirtualDubMod 1.5.10.2 (build 2540/release)

Видео
Идентификатор                            : 0
Формат                                   : MPEG-4 Visual
Профиль формата                          : Advanced Simple@L5
Параметр BVOP формата                    : 2
Параметр QPel формата                    : Нет
Параметр GMC формата                     : Без точки перехода
Параметр матрицы формата                 : Default (MPEG)
Идентификатор кодека                     : XVID
Идентификатор кодека/Подсказка           : XviD
Продолжительность                        : 1 ч. 51 м.
Битрейт                                  : 1482 Кбит/сек
Ширина                                   : 720 пикселей
Высота                                   : 304 пикселя
Соотношение сторон                       : 2,35:1
Частота кадров                           : 25,000 кадров/сек
Цветовое пространство                    : YUV
Субдискретизация насыщенности            : 4:2:0
Битовая глубина                          : 8 бит
Тип развёртки                            : Прогрессивная
Метод сжатия                             : С потерями
Бит/(Пиксели*Кадры)                      : 0.271
Размер потока                            : 1,15 Гбайт (79%)
Библиотека кодирования                   : XviD 1.2.1 (UTC 2008-12-04)

Аудио
Идентификатор                            : 1
Формат                                   : AC-3
Формат/Информация                        : Audio Coding 3
Расширение режима                        : CM (complete main)
Параметр Endianness формата              : Big
Идентификатор кодека                     : 2000
Продолжительность                        : 1 ч. 51 м.
Вид битрейта                             : Постоянный
Битрейт                                  : 384 Кбит/сек
Каналы                                   : 6 каналов
Расположение каналов                     : Front: L C R, Side: L R, LFE
Частота                                  : 48,0 КГц
Частота кадров                           : 31,250 кадров/сек (1536 spf)
Метод сжатия                             : С потерями
Размер потока                            : 305 Мбайт (20%)
Выравнивание                             : Разделение по промежуткам
Продолжительность промежутка             : 40  мс. (1,00 видеокадр)
Время предзагрузки промежутка            : 500  мс.
Релиз без рекламы


picpicpicpicpic
Для увеличения картинки щелкните мышкой по превью

Этот торрент недоступен для скачивания без регистрации, однако доступен по публичной magnet-ссылке (источники с публичных трекеров). Перед использованием ссылки прочтите, пожалуйста Пользовательское соглашение, а также как можно дольше оставайтесь на раздаче! Для того, чтобы скачать сам торрент-файл (который видит больше источников), а также для того, чтобы поблагодарить релизера, вам необходимо зарегистрироваться. Если регистрироваться лень - вы можете также попробовать скачать релиз по нашим партнерским ссылкам ниже.

[underverse.su].t68463.torrent
Трекер: Зарегистрирован   [ 27.07.2016 22:35 ]  

Статус: T временная (by makkol at 31.07.2016 09:24)
Поблагодарили: пока никто не поблагодарил...
Тип торрента: публичный - доступные источники с открытых трекеров: 
Размер: 1,45 GB (занимает 1/3 DVDR, для записи нужно 1 болванка DVDR/RW)
 
 
Похожие темы
Форум Тема Автор Торрент Отв. Посл. сооб.
Зарубежное кино [DVDRip, Low-Res HDRip, и т.д.] Славные парни / Goodfellas (Мартин Скорсезе / Martin Scorsese) [1990 г., триллер, драма, криминал, биография, BDRip] Dub + Sub (Rus, Eng) 90ytr90
9 | 0

0 | 1931

33

10.12.2013 17:02

Зарубежное кино [DVDRip, Low-Res HDRip, и т.д.] Славные парни / Goodfellas (Мартин Скорсезе / Martin Scorsese) [1990 г., триллер, драма, криминал, биография, HDRip-AVC] Dub + AVO + Original garry
136 | 13

0 | 1223

8

16.02.2014 00:02

Зарубежное кино [DVDRip, Low-Res HDRip, и т.д.] Славные парни / The Nice Guys (Шейн Блэк / Shane Black) [2016 г., криминал, комедия, HDRip] Dub + DVO (Кубик в Кубе) + Sub (Rus, Eng) 90ytr90
21 | 3

0 | 413

3

25.10.2016 18:03

Зарубежное кино [DVDRip, Low-Res HDRip, и т.д.] Славные парни / The Nice Guys (Шейн Блэк / Shane Black) [2016 г., криминал, комедия, BDRip] Dub 90ytr90
546 | 20

0 | 422

14

25.10.2016 17:44

* Зарубежное кино [DVDRip, Low-Res HDRip, и т.д.] Славные парни / The Nice Guys (Шейн Блэк / Shane Black) [2016 г., криминал, комедия, BDRip-AVC] Dub (iTunes) + Sub (Rus) 90ytr90
33 | 5

0 | 196

3

25.10.2016 17:36

T Зарубежное кино [DVDRip, Low-Res HDRip, и т.д.] Славные парни / The Nice Guys (Шейн Блэк / Shane Black) [2016 г., криминал, комедия, WEBRip] Dub (звук с CAMRip) + AVO (Гоблин звук с CAMRip) + hardsub (Ara) 90ytr90
118 | 3

0 | 787

54

07.07.2016 15:35

T Зарубежное кино [DVDRip, Low-Res HDRip, и т.д.] Славные парни / The Nice Guys (Шейн Блэк) [2016 г., криминал, комедия, WEBRip] MVO makkol
0 | 0

0 | 391

33

17.07.2016 10:26

T Зарубежное кино [DVDRip, Low-Res HDRip, и т.д.] Славные парни / The Nice Guys (Шейн Блэк / Shane Black) [2016 г., криминал, комедия, HDRip] Dub (iTunes) 90ytr90
324 | 4

0 | 559

26

08.08.2016 17:47

T Зарубежное кино [DVDRip, Low-Res HDRip, и т.д.] Славные парни / The Nice Guys (Шейн Блэк / Shane Black) [2016 г., криминал, комедия, HDRip] Dub (iTunes) + Original (Eng) 90ytr90
205 | 3

0 | 490

12

08.08.2016 17:51

Зарубежное кино [DVDRip, Low-Res HDRip, и т.д.] Славные парни / Goodfellas (Мартин Скорсезе / Martin Scorsese) [1990 г., триллер, драма, криминал, биография, BDRip] Dub 90ytr90
61 | 1

0 | 276

2

10.08.2016 15:24


Яндекс.Метрика powered by Sphinx


В Н И М А Н И Е
Сайт не распространяет и не хранит электронные версии произведений, а лишь бесплатно и без коммерческой выгоды (не требуя взамен платы,
SMS и т.д.) предоставляет доступ к создаваемому пользователями каталогу ссылок на торрент-файлы, которые содержат только списки хеш-сумм.
Убедительная просьба с жалобами обращаться напрямую к пользователю, разместившему торрент файл.

Вверх