Loading...
Error

Братья ветра / Wie Bruder im Wind / Brothers of the Wind (Херардо Оливарес, Отмар Пенкер) [2015 г., драма, приключения, семейный, HDRip] MVO (GreenРай Studio)

Статистика раздачи
Размер:  1,46 GB   |    Зарегистрирован:  4 месяца 13 дней   |    Скачан:  11 раз

Полного источника не было: 15 часов

Сидов:  0  |  0 KB/s  ]   Личеров:  0  |  0 KB/s  ]

* - сиды/пиры с внешних источников

   
 
Автор Сообщение

makkol Пол:Муж

27-Июл-2016 15:44

Братья ветра / Wie Brüder im Wind / Brothers of the Wind


Год выпуска: 2015
Жанр: драма, приключения, семейный
Производство: Австрия [Terra Mater Factual Studios]
Режиссер: Херардо Оливарес, Отмар Пенкер
В ролях: Жан Рено, Мануэль Камачо, Тобиас Моретти, Эва Куэн
Сюжет фильма:
Главный герой картины, мальчик по имени Лукас (Мануэль Камачо), живёт в горной местности. Найдя в лесу раненого птенца орла, решает излечить его сломанные крылья и научить жить в пустыне. Задача очень трудная, потому что отец мальчика не одобряет его планы, и орлёнок сначала очень настороженно относится к своему спасителю. Однако, со временем отношения Лукаса с дикой птицей превращаются в необыкновенную дружбу и приводят к увлекательным приключениям. Лукасу большую поддержку оказывает таинственный Данзер (Жан Рено), который как никто знает привычки диких животных и открывает мальчику их необычный мир...

  • Мировая премьера: 24 декабря 2015


Качество видео: HDRip

Продолжительность: 01:41:36
Формат: AVI
Видео: XviD, 720x384 (1.85:1), 23.976 fps, 1677 kbps
Аудио: русский, любительский многоголосый закадровый, AC3 5.1, 48 kHz, 448 kbps

Код:

Format : AVI
Format/Info : Audio Video Interleave
File size : 1.46 GiB
Duration : 1h 38mn
Overall bit rate : 2 133 Kbps
Writing application : VirtualDubMod 1.5.10.3 | www.virtualdub-fr.org || (build 2550/release)
Writing library : VirtualDubMod build 2550/release

Video
ID : 0
Format : MPEG-4 Visual
Format profile : Advanced Simple@L5
Format settings, BVOP : 1
Format settings, QPel : No
Format settings, GMC : No warppoints
Format settings, Matrix : Custom
Codec ID : XVID
Codec ID/Hint : XviD
Duration : 1h 38mn
Bit rate : 1 677 Kbps
Width : 720 pixels
Height : 384 pixels
Display aspect ratio : 1.85:1
Frame rate : 23.976 (23976/1000) fps
Color space : YUV
Chroma subsampling : 4:2:0
Bit depth : 8 bits
Scan type : Progressive
Compression mode : Lossy
Bits/(Pixel*Frame) : 0.253
Stream size : 1.15 GiB (79%)
Writing library : XviD 65

Audio
ID : 1
Format : AC-3
Format/Info : Audio Coding 3
Mode extension : CM (complete main)
Format settings, Endianness : Big
Codec ID : 2000
Duration : 1h 38mn
Bit rate mode : Constant
Bit rate : 448 Kbps
Channel(s) : 6 channels
Channel positions : Front: L C R, Side: L R, LFE
Sampling rate : 48.0 KHz
Frame rate : 31.250 fps (1536 spf)
Compression mode : Lossy
Stream size : 314 MiB (21%)
Alignment : Split accross interleaves
Interleave, duration : 42 ms (1.00 video frame)
Interleave, preload duratio : 500 ms
Перевод: Grabomir
Озвучивание: Антон Агапов, Алексей Соловьев, Антон Эмельянов
Звукорежиссёр и координатор: Евгений Овчаренко
Релиз:
Релиз без рекламы


picpicpicpicpic
Для увеличения картинки щелкните мышкой по превью

Этот торрент недоступен для скачивания без регистрации, однако доступен по публичной magnet-ссылке (источники с публичных трекеров). Перед использованием ссылки прочтите, пожалуйста Пользовательское соглашение, а также как можно дольше оставайтесь на раздаче! Для того, чтобы скачать сам торрент-файл (который видит больше источников), а также для того, чтобы поблагодарить релизера, вам необходимо зарегистрироваться. Если регистрироваться лень - вы можете также попробовать скачать релиз по нашим партнерским ссылкам ниже.

[underverse.su].t68459.torrent
Трекер: Зарегистрирован   [ 27.07.2016 15:44 ]  

Статус: проверено (by makkol at 28.07.2016 15:57)
Поблагодарили: пока никто не поблагодарил...
Тип торрента: публичный - доступные источники с открытых трекеров: 
Размер: 1,46 GB (занимает 0,33 DVDR, для записи нужно 1 болванка DVDR/RW)
 
 
Похожие темы
Форум Тема Автор Торрент Отв. Посл. сооб.
Зарубежное кино [DVDRip, Low-Res HDRip, и т.д.] Братья ветра / Wie Bruder im Wind / Brothers of the Wind (Херардо Оливарес, Отмар Пенкер) [2015 г., драма, приключения, семейный, HDRip] MVO makkol
0 | 0

0 | 580

5

24.07.2016 22:56

Зарубежное кино [HDDVDRip / BDRip / WEB-DL / HDTV 1080/720р] Братья ветра / Wie Bruder im Wind / Brothers of the Wind (Херардо Оливарес, Отмар Пенкер) [2015 г., драма, приключения, семейный, BDRip 720p] MVO makkol
3 | 0

0 | 516

5

24.07.2016 23:04

Зарубежное кино [HDDVDRip / BDRip / WEB-DL / HDTV 1080/720р] Братья ветра / Wie Bruder im Wind / Brothers of the Wind (Херардо Оливарес, Отмар Пенкер) [2015 г., драма, приключения, семейный, BDRip 1080p] MVO makkol
2 | 0

0 | 528

5

24.07.2016 23:10

Зарубежное кино [HDDVDRip / BDRip / WEB-DL / HDTV 1080/720р] Братья ветра / Wie Bruder im Wind / Brothers of the Wind (Херардо Оливарес, Отмар Пенкер) [2015 г., драма, приключения, семейный, BDRip 720p] MVO (GreenРай Studio) + Original makkol
6 | 0

0 | 610

3

27.07.2016 15:54

Зарубежное кино [HDDVDRip / BDRip / WEB-DL / HDTV 1080/720р] Братья ветра / Wie Bruder im Wind / Brothers of the Wind (Херардо Оливарес, Отмар Пенкер) [2015 г., драма, приключения, семейный, BDRip 1080p] MVO (GreenРай Studio) + Original makkol
9 | 0

0 | 658

6

27.07.2016 16:01


Яндекс.Метрика powered by Sphinx


В Н И М А Н И Е
Сайт не распространяет и не хранит электронные версии произведений, а лишь бесплатно и без коммерческой выгоды (не требуя взамен платы,
SMS и т.д.) предоставляет доступ к создаваемому пользователями каталогу ссылок на торрент-файлы, которые содержат только списки хеш-сумм.
Убедительная просьба с жалобами обращаться напрямую к пользователю, разместившему торрент файл.

Вверх