Loading...
Error

Умереть красивой. Ирина Метлицкая (Георгий Ананов) [2007 г., документальный, биография, кинематограф, TVRip]

Статистика раздачи
Размер:  512 MB   |    Зарегистрирован:  4 месяца 14 дней   |    Скачан:  2 раза

Полного источника не было: 26 дней

Сидов:  0  |  0 KB/s  ]   Личеров:  0  |  0 KB/s  ]

* - сиды/пиры с внешних источников

   
 
Автор Сообщение

ARI71 Пол:Муж

25-Июл-2016 09:28

Умереть красивой. Ирина Метлицкая


Год выпуска: 2007
Жанр: документальный, биография, кинематограф
Страна: Россия Телеканал "Россия"
Режиссер: Георгий Ананов
В ролях: Мария Овчинникова, Андрей Соколов, Роман Виктюк, Татьяна Метлицкая, Сергей Проханов, Александр Прошкин
Сюжет фильма:
Ирина Метлицкая. Ее называли самой красивой актрисой постсоветского времени. В историю кино она вошла как одна из самых загадочных и таинственных женщин.
Её не стало в 1997 году. Но и сейчас о ней, как и раньше, почти ничего неизвестно. Метлицкая не очень любила журналистов и крайне редко давала интервью. Вот что рассказывает артист Андрей Соколов: "Когда она начала угасать, она не позволила себя видеть практически никому. Это тоже поступок!"
У нее было все, чтобы стать настоящей звездой. И красота, и талант, и то, что особенно ценится в актрисах - индивидуальность. У нее всегда все получалось легко, как будто даже само собой. Но стать звездой ей помешало время - в 90-е годы кино почти не снималось. Об этом в фильме рассказывает Сергей Проханов, художественный руководитель театра "Луны": "Где-то в 90-м году это произошло: фильмы вообще пропали, понимаете. И стали снимать по две картины в год. Закрыли кинотеатр "Россия", под какой-то там ремонт бешеный, который долго-долго шел. Потом казино там организовали…"
Но времена опять сменились, кинематограф стал возрождаться. Ирина могла стать суперзвездой нового российского кино. Но вмешалось то, что называют по-разному - рок, удел или судьба… Метлицкой поставили диагноз - рак крови. Болезнь слишком поздно обнаружили и уже ничего нельзя было сделать.
Татьяна Метлицкая, мать Ирины, вспоминает: "Это судьба, наверное. Можно сказать, что ее жизнь была короткой, но счастливой? По-моему - да! Счастливая - да. Но ей очень хотелось жить. Она очень хотела жить..."

Ири́на Ю́рьевна Метли́цкая (5 октября 1961, Северодвинск — 5 июня 1997, Москва) — советская и российская актриса театра и кино.

Качество видео: TVRip

Продолжительность: 00:43:42
Формат: AVI
Видео: DivX 5, 640x480, ~1500 kbps
Аудио: русский, (оригинал), MP3 2.0, ~128.00 kbps

Код:

Общее
Полное имя : D:\Umeret`_krasivoy-Metlickaj.avi
Формат : AVI
Формат/Информация : Audio Video Interleave
Размер файла : 512 Мбайт
Продолжительность : 43 м.
Общий поток : 1638 Кбит/сек
Библиотека кодирования : VirtualDub build 27021/release

Видео
Идентификатор : 0
Формат : MPEG-4 Visual
Параметр BVOP формата : 1
Параметр QPel формата : Нет
Параметр GMC формата : Без точки перехода
Параметр матрицы формата : Default (H.263)
Режим смешивания : Сжатый битовый поток
Идентификатор кодека : DX50
Идентификатор кодека/Подсказка : DivX 5
Продолжительность : 43 м.
Битрейт : 1500 Кбит/сек
Ширина : 640 пикселей
Высота : 480 пикселей
Соотношение сторон : 4:3
Частота кадров : 25,000 кадров/сек
Цветовое пространство : YUV
Субдискретизация насыщенности : 4:2:0
Битовая глубина : 8 бит
Тип развёртки : Прогрессивная
Метод сжатия : С потерями
Бит/(Пиксели*Кадры) : 0.195
Размер потока : 469 Мбайт (92%)
Библиотека кодирования : DivX 5.2.1 (DrDivX 106) (UTC 2004-09-08)

Аудио
Идентификатор : 1
Формат : MPEG Audio
Версия формата : Version 1
Профиль формата : Layer 3
Режим : Joint stereo
Расширение режима : MS Stereo
Идентификатор кодека : 55
Идентификатор кодека/Подсказка : MP3
Продолжительность : 43 м.
Вид битрейта : Постоянный
Битрейт : 128 Кбит/сек
Каналы : 2 канала
Частота : 48,0 КГц
Метод сжатия : С потерями
Размер потока : 40,0 Мбайт (8%)
Выравнивание : Разделение по промежуткам
Продолжительность промежутка : 40 мс. (1,00 видеокадр)
Время предзагрузки промежутка : 500 мс.
picpicpicpic
Для увеличения картинки щелкните мышкой по превью

Этот торрент недоступен для скачивания без регистрации, однако доступен по публичной magnet-ссылке (источники с публичных трекеров). Перед использованием ссылки прочтите, пожалуйста Пользовательское соглашение, а также как можно дольше оставайтесь на раздаче! Для того, чтобы скачать сам торрент-файл (который видит больше источников), а также для того, чтобы поблагодарить релизера, вам необходимо зарегистрироваться. Если регистрироваться лень - вы можете также попробовать скачать релиз по нашим партнерским ссылкам ниже.

[underverse.su].t68422.torrent
Трекер: Зарегистрирован   [ 25.07.2016 09:28 ]  

Статус: проверено (by makkol at 25.07.2016 11:05)
Поблагодарили: пока никто не поблагодарил...
Тип торрента: публичный - доступные источники с открытых трекеров: 
Размер: 512 MB (занимает 0,11 DVDR, для записи нужно 1 болванка DVDR/RW)
 
 

Яндекс.Метрика powered by Sphinx


В Н И М А Н И Е
Сайт не распространяет и не хранит электронные версии произведений, а лишь бесплатно и без коммерческой выгоды (не требуя взамен платы,
SMS и т.д.) предоставляет доступ к создаваемому пользователями каталогу ссылок на торрент-файлы, которые содержат только списки хеш-сумм.
Убедительная просьба с жалобами обращаться напрямую к пользователю, разместившему торрент файл.

Вверх