Loading...
Error

Братья ветра / Wie Bruder im Wind / Brothers of the Wind (Херардо Оливарес, Отмар Пенкер) [2015 г., драма, приключения, семейный, HDRip] MVO

Статистика раздачи
Размер:  1,46 GB   |    Зарегистрирован:  4 месяца 12 дней   |    Скачан:  5 раз

Полного источника не было: 3 месяца 28 дней

Сидов:  0  |  0 KB/s  ]   Личеров:  0  |  0 KB/s  ]

* - сиды/пиры с внешних источников

   
 
Автор Сообщение

makkol Пол:Муж

24-Июл-2016 22:56

Братья ветра / Wie Brüder im Wind / Brothers of the Wind


Год выпуска: 2015
Жанр: драма, приключения, семейный
Производство: Австрия [Terra Mater Factual Studios]
Режиссер: Херардо Оливарес, Отмар Пенкер
В ролях: Жан Рено, Мануэль Камачо, Тобиас Моретти, Эва Куэн
Сюжет фильма:
Пронзительная история о дружбе и взрослении. Мальчик Лукас страдает из-за отца, сломленного смертью жены. Любовь и утешение он находит в спасенном им орленке, которого вытолкнул из гнезда старший брат. Птенец превращается в сильного орла. Приходит время отпустить его на волю, но сможет ли Лукас также вступить в новую жизнь? Очень красивый, в визуальном плане, приключенческий фильм о дружбе мальчика и орла, закадровым голосом историю рассказывает сам Жан Рено.

  • Мировая премьера: 24 декабря 2015


Качество видео: HDRip

Продолжительность: 01:41:36
Формат: AVI
Видео: XviD, 720x384 (1.85:1), 23.976 fps, 1848 kbps
Аудио: русский, любительский многоголосый закадровый (Parovoz Production), AC3 2.0, 48 kHz, 192 kbps

Код:

Формат                                   : AVI
Формат/Информация                        : Audio Video Interleave
Размер файла                             : 1,46 Гбайт
Продолжительность                        : 1 ч. 41 м.
Общий поток                              : 2050 Кбит/сек
Программа кодирования                    : VirtualDubMod 1.5.10.3 | www.virtualdub-fr.org || (build 2550/release)
Библиотека кодирования                   : VirtualDubMod build 2550/release

Видео
Идентификатор                            : 0
Формат                                   : MPEG-4 Visual
Профиль формата                          : Advanced Simple@L5
Параметр BVOP формата                    : 2
Параметр QPel формата                    : Нет
Параметр GMC формата                     : Без точки перехода
Параметр матрицы формата                 : Default (MPEG)
Идентификатор кодека                     : XVID
Идентификатор кодека/Подсказка           : XviD
Продолжительность                        : 1 ч. 41 м.
Битрейт                                  : 1849 Кбит/сек
Ширина                                   : 720 пикселей
Высота                                   : 384 пикселя
Соотношение сторон                       : 1,85:1
Частота кадров                           : 23,976 кадра/сек
Цветовое пространство                    : YUV
Субдискретизация насыщенности            : 4:2:0
Битовая глубина                          : 8 бит
Тип развёртки                            : Прогрессивная
Метод сжатия                             : С потерями
Бит/(Пиксели*Кадры)                      : 0.279
Размер потока                            : 1,31 Гбайт (90%)
Библиотека кодирования                   : XviD 1.2.1 (UTC 2008-12-04)

Аудио
Идентификатор                            : 1
Формат                                   : AC-3
Формат/Информация                        : Audio Coding 3
Расширение режима                        : CM (complete main)
Параметр Endianness формата              : Big
Идентификатор кодека                     : 2000
Продолжительность                        : 1 ч. 41 м.
Вид битрейта                             : Постоянный
Битрейт                                  : 192 Кбит/сек
Каналы                                   : 2 канала
Расположение каналов                     : Front: L R
Частота                                  : 48,0 КГц
Метод сжатия                             : С потерями
Размер потока                            : 140 Мбайт (9%)
Выравнивание                             : Разделение по промежуткам
Продолжительность промежутка             : 42  мс. (1,00 видеокадр)
Время предзагрузки промежутка            : 500  мс.
Присутствует реклама


picpicpicpicpic
Для увеличения картинки щелкните мышкой по превью

Этот торрент недоступен для скачивания без регистрации, однако доступен по публичной magnet-ссылке (источники с публичных трекеров). Перед использованием ссылки прочтите, пожалуйста Пользовательское соглашение, а также как можно дольше оставайтесь на раздаче! Для того, чтобы скачать сам торрент-файл (который видит больше источников), а также для того, чтобы поблагодарить релизера, вам необходимо зарегистрироваться. Если регистрироваться лень - вы можете также попробовать скачать релиз по нашим партнерским ссылкам ниже.

[underverse.su].t68418.torrent
Трекер: Зарегистрирован   [ 24.07.2016 22:56 ]  

Статус: проверено (by makkol at 28.07.2016 14:54)
Поблагодарили: пока никто не поблагодарил...
Тип торрента: публичный - доступные источники с открытых трекеров: 
Размер: 1,46 GB (занимает 1/3 DVDR, для записи нужно 1 болванка DVDR/RW)
 
 
Похожие темы
Форум Тема Автор Торрент Отв. Посл. сооб.
Зарубежное кино [DVDRip, Low-Res HDRip, и т.д.] Братья ветра / Wie Bruder im Wind / Brothers of the Wind (Херардо Оливарес, Отмар Пенкер) [2015 г., драма, приключения, семейный, HDRip] MVO (GreenРай Studio) makkol
98 | 4

0 | 657

11

27.07.2016 15:44

Зарубежное кино [HDDVDRip / BDRip / WEB-DL / HDTV 1080/720р] Братья ветра / Wie Bruder im Wind / Brothers of the Wind (Херардо Оливарес, Отмар Пенкер) [2015 г., драма, приключения, семейный, BDRip 720p] MVO makkol
3 | 0

0 | 515

5

24.07.2016 23:04

Зарубежное кино [HDDVDRip / BDRip / WEB-DL / HDTV 1080/720р] Братья ветра / Wie Bruder im Wind / Brothers of the Wind (Херардо Оливарес, Отмар Пенкер) [2015 г., драма, приключения, семейный, BDRip 1080p] MVO makkol
2 | 0

0 | 527

5

24.07.2016 23:10

Зарубежное кино [HDDVDRip / BDRip / WEB-DL / HDTV 1080/720р] Братья ветра / Wie Bruder im Wind / Brothers of the Wind (Херардо Оливарес, Отмар Пенкер) [2015 г., драма, приключения, семейный, BDRip 720p] MVO (GreenРай Studio) + Original makkol
8 | 0

0 | 608

3

27.07.2016 15:54

Зарубежное кино [HDDVDRip / BDRip / WEB-DL / HDTV 1080/720р] Братья ветра / Wie Bruder im Wind / Brothers of the Wind (Херардо Оливарес, Отмар Пенкер) [2015 г., драма, приключения, семейный, BDRip 1080p] MVO (GreenРай Studio) + Original makkol
9 | 0

0 | 657

6

27.07.2016 16:01


Яндекс.Метрика powered by Sphinx


В Н И М А Н И Е
Сайт не распространяет и не хранит электронные версии произведений, а лишь бесплатно и без коммерческой выгоды (не требуя взамен платы,
SMS и т.д.) предоставляет доступ к создаваемому пользователями каталогу ссылок на торрент-файлы, которые содержат только списки хеш-сумм.
Убедительная просьба с жалобами обращаться напрямую к пользователю, разместившему торрент файл.

Вверх