Loading...
Error

Острова. Людмила Чурсина (Ирина Ланина) [2016 г., документальный, биография, театр, кинематограф, SatRip]

Статистика раздачи
Размер:  405 MB   |    Зарегистрирован:  4 месяца 11 дней   |    Скачан:  2 раза

Полного источника не было: 11 дней

Сидов:  0  |  0 KB/s  ]   Личеров:  0  |  0 KB/s  ]

* - сиды/пиры с внешних источников

   
 
Автор Сообщение

ARI71 Пол:Муж

24-Июл-2016 12:42

Острова. Людмила Чурсина


Год выпуска: 2016
Жанр: документальный, биография, театр, кинематограф
Страна: Россия ГТРК "Культура"
Режиссер: Ирина Ланина
В ролях: Людмила Чурсина, Александр Бурдонский, Армен Джигарханян
Сюжет фильма:
Главной ролью, которая открыла для кино актрису Чурсину, стала казачка Дарья в "Донской повести" режиссера Владимира Фетина. Первая награда за фильм "Журавушка" была получена Чурсиной на кинофестивале в Испании. Далее последовали знаковые работы в фильмах "Виринея", "Любовь Яровая", "Приваловские миллионы" и многие другие. Но известны не только киноработы Людмилы Чурсиной, она давно и преданно служит театру. Самые известные из ее театральных работ - Настасья Филипповна в постановке "Идиот", а также "Макбет", "Этот безумец Платонов". Сегодня она успешно занята в четырех спектаклях Центрального академического театра Российской Армии.

Людми́ла Алексе́евна Чурсина́ (род. 20 июля 1941, Сталинабад, Таджикская ССР, СССР) — советская и российская актриса театра и кино. Народная артистка СССР (1981)

Качество видео: SatRip

Продолжительность: 00:39:24
Формат: AVI
Видео: XviD, 704x528, ~1298 kbps
Аудио: русский, (оригинал), MP3 2.0, ~128.00 kbps

Код:

Общее
Полное имя : D:\Острова. Людмила Чурсина.2016.SATRip.kosta52.avi
Формат : AVI
Формат/Информация : Audio Video Interleave
Размер файла : 405 Мбайт
Продолжительность : 39 м.
Общий поток : 1436 Кбит/сек
Программа кодирования : VirtualDubMod 1.5.10.3 | www.virtualdub-fr.org || (build 2550/release)
Библиотека кодирования : VirtualDubMod build 2550/release

Видео
Идентификатор : 0
Формат : MPEG-4 Visual
Профиль формата : Advanced Simple@L5
Параметр BVOP формата : 2
Параметр QPel формата : Нет
Параметр GMC формата : Без точки перехода
Параметр матрицы формата : Default (H.263)
Идентификатор кодека : XVID
Идентификатор кодека/Подсказка : XviD
Продолжительность : 39 м.
Битрейт : 1298 Кбит/сек
Ширина : 704 пикселя
Высота : 528 пикселей
Соотношение сторон : 4:3
Частота кадров : 25,000 кадров/сек
Цветовое пространство : YUV
Субдискретизация насыщенности : 4:2:0
Битовая глубина : 8 бит
Тип развёртки : Прогрессивная
Метод сжатия : С потерями
Бит/(Пиксели*Кадры) : 0.140
Размер потока : 366 Мбайт (90%)
Библиотека кодирования : XviD 1.2.1 (UTC 2008-12-04)

Аудио
Идентификатор : 1
Формат : MPEG Audio
Версия формата : Version 1
Профиль формата : Layer 3
Режим : Joint stereo
Расширение режима : MS Stereo
Идентификатор кодека : 55
Идентификатор кодека/Подсказка : MP3
Продолжительность : 39 м.
Вид битрейта : Постоянный
Битрейт : 128 Кбит/сек
Каналы : 2 канала
Частота : 48,0 КГц
Метод сжатия : С потерями
Размер потока : 36,1 Мбайт (9%)
Выравнивание : Соединение по промежуткам
Продолжительность промежутка : 40 мс. (1,00 видеокадр)
Время предзагрузки промежутка : 504 мс.
Библиотека кодирования : LAME3.99r
Настройки программы : -m j -V 4 -q 2 -lowpass 17 -b 128
picpicpicpicpic
Для увеличения картинки щелкните мышкой по превью

Этот торрент недоступен для скачивания без регистрации, однако доступен по публичной magnet-ссылке (источники с публичных трекеров). Перед использованием ссылки прочтите, пожалуйста Пользовательское соглашение, а также как можно дольше оставайтесь на раздаче! Для того, чтобы скачать сам торрент-файл (который видит больше источников), а также для того, чтобы поблагодарить релизера, вам необходимо зарегистрироваться. Если регистрироваться лень - вы можете также попробовать скачать релиз по нашим партнерским ссылкам ниже.

[underverse.su].t68405.torrent
Трекер: Зарегистрирован   [ 24.07.2016 12:42 ]  

Статус: проверено (by makkol at 24.07.2016 14:30)
Поблагодарили: пока никто не поблагодарил...
Тип торрента: публичный - доступные источники с открытых трекеров: 
Размер: 405 MB (занимает 0,09 DVDR, для записи нужно 1 болванка DVDR/RW)
 
 
Похожие темы
Форум Тема Автор Торрент Отв. Посл. сооб.
Личности Острова. Леонид Куравлёв (Татьяна Земскова) [2016 г., документальный, биография, театр, кинематограф, SatRip] ARI71
0 | 0

1 | 124

1

12.10.2016 11:05


Яндекс.Метрика powered by Sphinx


В Н И М А Н И Е
Сайт не распространяет и не хранит электронные версии произведений, а лишь бесплатно и без коммерческой выгоды (не требуя взамен платы,
SMS и т.д.) предоставляет доступ к создаваемому пользователями каталогу ссылок на торрент-файлы, которые содержат только списки хеш-сумм.
Убедительная просьба с жалобами обращаться напрямую к пользователю, разместившему торрент файл.

Вверх