Loading...
Error

Фотоальбом Карена Шахназарова [2010 г., документальный, биография, SatRip]

Статистика раздачи
Размер:  672 MB   |    Зарегистрирован:  4 месяца 11 дней   |    Скачан:  0 раз

Полного источника не было: 4 месяца 10 дней

Сидов:  0  |  0 KB/s  ]   Личеров:  0  |  0 KB/s  ]

* - сиды/пиры с внешних источников

   
 
Автор Сообщение

ARI71 Пол:Муж

23-Июл-2016 19:27

Фотоальбом Карена Шахназарова


Год выпуска: 2010
Жанр: документальный, биография
Страна: Россия ЗАО "ВКТ-Р", ТК "Кто есть кто"
В ролях: Карен Шахназаров
Сюжет фильма:
В основе фильма – история жизни известной личности, последовательно разворачивающаяся перед глазами зрителей благодаря уникальным фотографиям.

Каре́н Гео́ргиевич Шахназа́ров (род. 8 июля 1952) — советский и российский кинорежиссёр, сценарист, продюсер, генеральный директор киноконцерна «Мосфильм». Заслуженный деятель искусств РФ (1997). Народный артист РФ (2002). Дважды Лауреат Государственной премии Российской Федерации.

Качество видео: SatRip

Продолжительность: 00:44:22
Формат: AVI
Видео: XviD, 704х512, ~1915 kbps
Аудио: русский, (оригинал), AC3 2.0, ~192.00 kbps

Код:

Общее
Полное имя : D:\Фотоальбом Карена Шахназарова.2010.SATRip.avi
Формат : AVI
Формат/Информация : Audio Video Interleave
Размер файла : 672 Мбайт
Продолжительность : 44 м.
Общий поток : 2116 Кбит/сек
Программа кодирования : VirtualDubMod 1.5.10.3 | www.virtualdub-fr.org || (build 2550/release)
Библиотека кодирования : VirtualDubMod build 2550/release

Видео
Идентификатор : 0
Формат : MPEG-4 Visual
Профиль формата : Advanced Simple@L5
Параметр BVOP формата : 2
Параметр QPel формата : Нет
Параметр GMC формата : Без точки перехода
Параметр матрицы формата : Default (H.263)
Идентификатор кодека : XVID
Идентификатор кодека/Подсказка : XviD
Продолжительность : 44 м.
Битрейт : 1915 Кбит/сек
Ширина : 704 пикселя
Высота : 512 пикселей
Соотношение сторон : 1,375
Частота кадров : 25,000 кадров/сек
Цветовое пространство : YUV
Субдискретизация насыщенности : 4:2:0
Битовая глубина : 8 бит
Тип развёртки : Прогрессивная
Метод сжатия : С потерями
Бит/(Пиксели*Кадры) : 0.212
Размер потока : 608 Мбайт (90%)
Библиотека кодирования : XviD 73

Аудио
Идентификатор : 1
Формат : AC-3
Формат/Информация : Audio Coding 3
Расширение режима : CM (complete main)
Параметр Endianness формата : Big
Идентификатор кодека : 2000
Продолжительность : 44 м.
Вид битрейта : Постоянный
Битрейт : 192 Кбит/сек
Каналы : 2 канала
Расположение каналов : Front: L R
Частота : 48,0 КГц
Частота кадров : 31,250 кадров/сек (1536 spf)
Метод сжатия : С потерями
Размер потока : 60,9 Мбайт (9%)
Выравнивание : Разделение по промежуткам
Продолжительность промежутка : 40 мс. (1,00 видеокадр)
Время предзагрузки промежутка : 500 мс.
picpicpicpicpic
Для увеличения картинки щелкните мышкой по превью

Этот торрент недоступен для скачивания без регистрации, однако доступен по публичной magnet-ссылке (источники с публичных трекеров). Перед использованием ссылки прочтите, пожалуйста Пользовательское соглашение, а также как можно дольше оставайтесь на раздаче! Для того, чтобы скачать сам торрент-файл (который видит больше источников), а также для того, чтобы поблагодарить релизера, вам необходимо зарегистрироваться. Если регистрироваться лень - вы можете также попробовать скачать релиз по нашим партнерским ссылкам ниже.

[underverse.su].t68357.torrent
Трекер: Зарегистрирован   [ 23.07.2016 19:27 ]  

Статус: проверено (by makkol at 23.07.2016 21:33)
Поблагодарили: пока никто не поблагодарил...
Тип торрента: публичный - доступные источники с открытых трекеров: 
Размер: 672 MB (занимает 0,15 DVDR, для записи нужно 1 болванка DVDR/RW)
 
 
Похожие темы
Форум Тема Автор Торрент Отв. Посл. сооб.
Личности Фотоальбом Андрея Соколова (Владимир Глазунов) [2011 г., документальный, биография, рассказ, IPTVRip] ARI71
0 | 0

0 | 470

0

13.08.2016 17:33

Рамки и виньетки Фотоальбом Наша свадьба. [7 шт., 7205х3602 Х 7382х3602] PSD nikola120
0 | 0

0 | 676

12

11.04.2014 06:49


Яндекс.Метрика powered by Sphinx


В Н И М А Н И Е
Сайт не распространяет и не хранит электронные версии произведений, а лишь бесплатно и без коммерческой выгоды (не требуя взамен платы,
SMS и т.д.) предоставляет доступ к создаваемому пользователями каталогу ссылок на торрент-файлы, которые содержат только списки хеш-сумм.
Убедительная просьба с жалобами обращаться напрямую к пользователю, разместившему торрент файл.

Вверх