Loading...
Error

Мегазаводы: Боинг 747 / Megafactories: Boeing 747 (Стефен Хантер) [2012 г., документальный, авиастроение, HDTVRip 720p] VO + Original (Eng)

Статистика раздачи
Размер:  889 MB   |    Зарегистрирован:  4 месяца 18 дней   |    Скачан:  4 раза

Полного источника не было: 32 минуты

Сидов:  0  |  0 KB/s  ]   Личеров:  0  |  0 KB/s  ]

* - сиды/пиры с внешних источников

   
 
Автор Сообщение

ARI71 Пол:Муж

23-Июл-2016 12:41

Мегазаводы: Боинг 747 / Megafactories: Boeing 747


Год выпуска: 2012
Жанр: документальный, авиастроение
Страна: США National Geographic Channel
Режиссер: Стефен Хантер
В ролях: конструкторы, инженеры, рабочие
Сюжет фильма:
Боинг 747-8 — двухпалубный широкофюзеляжный пассажирский самолёт разработанный компанией Boeing. Этот анонсированный в 2005 году авиалайнер является новым поколением знаменитой серии Boeing 747 с удлинённым фюзеляжем, перепроектированным крылом и улучшенной экономической эффективностью. 747-8 является самым большим коммерческим самолётом, построенным в США, а также самым длинным пассажирским самолётом в мире, превысившим длину Airbus A340-600 почти на метр. Если вы хотите построить мегасамолёт, то вам нужен мегазавод. Это не просто завод, это небольшой город со своей пожарной станцией, службой безопасности, медицинским центром, электро и водоснабжением. В самом большом здании мира крылья шириной в четыре дома и огромные реактивные двигатели соединяются, рождая летучего гиганта. Это новейшая модификация Боинга 747, модель 8, мчится по взлётной полосе, чтобы подняться в небо.
Качество видео: HDTVRip 720p

Продолжительность: 00:44:59
Формат: MKV
Видео: AVC (x264), 1280x720, ~2323 kbps
Аудио #1: русский, одноголосый закадровый (профессиональный), AC3 2.0, ~192.00 kbps
Аудио #2: английский, (оригинал), AC3 2.0, ~192.00 kbps

Код:

Общее
Уникальный идентификатор : 193245458447970307205937868485227010952 (0x9161B8B47F72BC459FB6C407BAF15B88)
Полное имя : D:\Megafactories.Boeing.747.2012.720p.HDTV.x264.mkv
Формат : Matroska
Версия формата : Version 2
Размер файла : 889 Мбайт
Продолжительность : 44 м.
Общий поток : 2762 Кбит/сек
Дата кодирования : UTC 2012-06-18 09:21:27
Программа кодирования : mkvmerge v5.6.0 ('Kenya Kane') built on May 27 2012 16:44:04
Библиотека кодирования : libebml v1.2.3 + libmatroska v1.3.0

Видео
Идентификатор : 1
Формат : AVC
Формат/Информация : Advanced Video Codec
Профиль формата : High@L4.1
Параметр CABAC формата : Да
Параметр ReFrames формата : 5 кадров
Режим смешивания : Header stripping
Идентификатор кодека : V_MPEG4/ISO/AVC
Продолжительность : 44 м.
Битрейт : 2323 Кбит/сек
Ширина : 1280 пикселей
Высота : 720 пикселей
Соотношение сторон : 16:9
Режим частоты кадров : Постоянный
Частота кадров : 25,000 кадров/сек
Цветовое пространство : YUV
Субдискретизация насыщенности : 4:2:0
Битовая глубина : 8 бит
Тип развёртки : Прогрессивная
Бит/(Пиксели*Кадры) : 0.101
Размер потока : 748 Мбайт (84%)
Библиотека кодирования : x264 core 125 r2200 999b753
Настройки программы : cabac=1 / ref=5 / deblock=1:0:0 / analyse=0x3:0x113 / me=umh / subme=8 / psy=1 / psy_rd=1.00:0.00 / mixed_ref=1 / me_range=16 / chroma_me=1 / trellis=1 / 8x8dct=1 / cqm=0 / deadzone=21,11 / fast_pskip=1 / chroma_qp_offset=-2 / threads=6 / lookahead_threads=1 / sliced_threads=0 / nr=0 / decimate=1 / interlaced=0 / bluray_compat=0 / constrained_intra=0 / bframes=3 / b_pyramid=2 / b_adapt=2 / b_bias=0 / direct=3 / weightb=1 / open_gop=0 / weightp=2 / keyint=250 / keyint_min=25 / scenecut=40 / intra_refresh=0 / rc_lookahead=50 / rc=crf / mbtree=1 / crf=20.0 / qcomp=0.60 / qpmin=0 / qpmax=69 / qpstep=4 / ip_ratio=1.40 / aq=1:1.00
Default : Да
Forced : Нет

Аудио #1
Идентификатор : 2
Формат : AC-3
Формат/Информация : Audio Coding 3
Расширение режима : CM (complete main)
Параметр Endianness формата : Big
Режим смешивания : Header stripping
Идентификатор кодека : A_AC3
Продолжительность : 44 м.
Вид битрейта : Постоянный
Битрейт : 192 Кбит/сек
Каналы : 2 канала
Расположение каналов : Front: L R
Частота : 48,0 КГц
Частота кадров : 31,250 кадров/сек (1536 spf)
Метод сжатия : С потерями
Размер потока : 61,8 Мбайт (7%)
Язык : Russian
Default : Да
Forced : Нет

Аудио #2
Идентификатор : 3
Формат : AC-3
Формат/Информация : Audio Coding 3
Расширение режима : CM (complete main)
Параметр Endianness формата : Big
Режим смешивания : Header stripping
Идентификатор кодека : A_AC3
Продолжительность : 44 м.
Вид битрейта : Постоянный
Битрейт : 192 Кбит/сек
Каналы : 2 канала
Расположение каналов : Front: L R
Частота : 48,0 КГц
Частота кадров : 31,250 кадров/сек (1536 spf)
Метод сжатия : С потерями
Размер потока : 61,8 Мбайт (7%)
Язык : English
Default : Нет
Forced : Нет
picpicpicpicpic
Для увеличения картинки щелкните мышкой по превью

Этот торрент недоступен для скачивания без регистрации, однако доступен по публичной magnet-ссылке (источники с публичных трекеров). Перед использованием ссылки прочтите, пожалуйста Пользовательское соглашение, а также как можно дольше оставайтесь на раздаче! Для того, чтобы скачать сам торрент-файл (который видит больше источников), а также для того, чтобы поблагодарить релизера, вам необходимо зарегистрироваться. Если регистрироваться лень - вы можете также попробовать скачать релиз по нашим партнерским ссылкам ниже.

[underverse.su].t68350.torrent
Трекер: Зарегистрирован   [ 23.07.2016 12:41 ]  

Статус: проверено (by makkol at 23.07.2016 13:38)
Поблагодарили: пока никто не поблагодарил...
Тип торрента: публичный - доступные источники с открытых трекеров: 
Размер: 889 MB (занимает 0,2 DVDR, для записи нужно 1 болванка DVDR/RW)
 
 
Похожие темы
Форум Тема Автор Торрент Отв. Посл. сооб.
Архив Мегазаводы: Феррари / Megafactories: Ferrari [2006 г., документальный, научно-популярный, HDTV 1080i] TuFED
0 | 0

2 | 1163

0

17.02.2011 14:46


Яндекс.Метрика powered by Sphinx


В Н И М А Н И Е
Сайт не распространяет и не хранит электронные версии произведений, а лишь бесплатно и без коммерческой выгоды (не требуя взамен платы,
SMS и т.д.) предоставляет доступ к создаваемому пользователями каталогу ссылок на торрент-файлы, которые содержат только списки хеш-сумм.
Убедительная просьба с жалобами обращаться напрямую к пользователю, разместившему торрент файл.

Вверх