Loading...
Error

Великие боевые машины Второй мировой войны. Истребители стран Оси / The Great Fighting Machines of WW2: Axis Fighters (Джонатан Мур) [1993 г., документальный, авиация, война, история, DVDRip] VO (den904) + Original (Eng)

Статистика раздачи
Размер:  1004 MB   |    Зарегистрирован:  4 месяца 15 дней   |    Скачан:  6 раз
Сидов:  1  |  0 KB/s  ]   Личеров:  0  |  0 KB/s  ]

* - сиды/пиры с внешних источников

   
 
Автор Сообщение

ARI71 Пол:Муж

23-Июл-2016 12:13

Великие боевые машины Второй мировой войны. Истребители стран Оси / The Great Fighting Machines of WW2: Axis Fighters


Год выпуска: 1993
Жанр: документальный, авиация, война, история
Страна: Великобритания Command Vision, Ltd
Режиссер: Джонатан Мур
Сюжет фильма:
Самолеты-истребители сыграли определяющую роль при ведении воздушных операций во время Второй мировой войны. Для того, чтобы завоевать превосходство в небе, прикрыть свои быстро продвигающиеся войска, а затем, чтобы защититься от разрушительных бомбардировок Союзников, немцы и японцы создали несколько наиболее передовых и эффективных истребителей своего времени. Такие, как Мессершмитт Bf.109, Фокке-Вульф FW-190 и A6M Zero. В этом фильме, вы увидите эти и многие другие истребители стран Оси, в том числе итальянские «Молнии», а также боевых первенцев реактивной эры: Мессершмитт Me.262 и Мессершмитт Ме.163 «Комета».
История их создания и боевого применения, воздушные бои днем и ночью в небе над Европой и Дальнего Востока.
Фильм создан при сотрудничестве Имперского военного музея Великобритании, Музея Королевских военно-воздушных сил и Национального архива США, с использованием редких, хорошо сохранившихся киноматериалов времен Второй мировой войны.

Качество видео: DVDRip

Продолжительность: 00:58:34
Формат: AVI
Видео: XviD, 640x480, ~2000 kbps
Аудио #1: русский, одноголосый закадровый (любительский), AC3 2.0, ~192.00 kbps |den904|
Аудио #2: английский, AC3 2.0, ~192.00 kbps |оригинал|

Код:

Общее
Полное имя : D:\Истребители.стран.Оси.1993.XviD.DVDRip.alf62.avi
Формат : AVI
Формат/Информация : Audio Video Interleave
Размер файла : 1004 Мбайт
Продолжительность : 58 м.
Общий поток : 2398 Кбит/сек
Программа кодирования : VirtualDubModRus 1.5.10.2 (build 2542/release)
Библиотека кодирования : VirtualDubMod build 2542/release

Видео
Идентификатор : 0
Формат : MPEG-4 Visual
Профиль формата : Advanced Simple@L5
Параметр BVOP формата : 1
Параметр QPel формата : Нет
Параметр GMC формата : Без точки перехода
Параметр матрицы формата : Выборочная
Идентификатор кодека : XVID
Идентификатор кодека/Подсказка : XviD
Продолжительность : 58 м.
Битрейт : 2000 Кбит/сек
Ширина : 640 пикселей
Высота : 480 пикселей
Соотношение сторон : 4:3
Частота кадров : 25,000 кадров/сек
Цветовое пространство : YUV
Субдискретизация насыщенности : 4:2:0
Битовая глубина : 8 бит
Тип развёртки : Прогрессивная
Метод сжатия : С потерями
Бит/(Пиксели*Кадры) : 0.260
Размер потока : 838 Мбайт (83%)
Библиотека кодирования : XviD 73

Аудио #1
Идентификатор : 1
Формат : AC-3
Формат/Информация : Audio Coding 3
Расширение режима : CM (complete main)
Параметр Endianness формата : Big
Идентификатор кодека : 2000
Продолжительность : 58 м.
Вид битрейта : Постоянный
Битрейт : 192 Кбит/сек
Каналы : 2 канала
Расположение каналов : Front: L R
Частота : 48,0 КГц
Частота кадров : 31,250 кадров/сек (1536 spf)
Метод сжатия : С потерями
Размер потока : 80,2 Мбайт (8%)
Выравнивание : Разделение по промежуткам
Продолжительность промежутка : 40 мс. (1,00 видеокадр)
Время предзагрузки промежутка : 500 мс.

Аудио #2
Идентификатор : 2
Формат : AC-3
Формат/Информация : Audio Coding 3
Расширение режима : CM (complete main)
Параметр Endianness формата : Big
Идентификатор кодека : 2000
Продолжительность : 58 м.
Вид битрейта : Постоянный
Битрейт : 192 Кбит/сек
Каналы : 2 канала
Расположение каналов : Front: L R
Частота : 48,0 КГц
Частота кадров : 31,250 кадров/сек (1536 spf)
Метод сжатия : С потерями
Размер потока : 80,4 Мбайт (8%)
Выравнивание : Разделение по промежуткам
Продолжительность промежутка : 40 мс. (1,00 видеокадр)
Время предзагрузки промежутка : 500 мс.
picpicpicpicpic
Для увеличения картинки щелкните мышкой по превью

Этот торрент недоступен для скачивания без регистрации, однако доступен по публичной magnet-ссылке (источники с публичных трекеров). Перед использованием ссылки прочтите, пожалуйста Пользовательское соглашение, а также как можно дольше оставайтесь на раздаче! Для того, чтобы скачать сам торрент-файл (который видит больше источников), а также для того, чтобы поблагодарить релизера, вам необходимо зарегистрироваться. Если регистрироваться лень - вы можете также попробовать скачать релиз по нашим партнерским ссылкам ниже.

[underverse.su].t68349.torrent
Трекер: Зарегистрирован   [ 23.07.2016 12:13 ]  

Статус: проверено (by makkol at 23.07.2016 13:37)
Поблагодарили: пока никто не поблагодарил...
Тип торрента: публичный - доступные источники с открытых трекеров: 
Размер: 1004 MB (занимает 0,22 DVDR, для записи нужно 1 болванка DVDR/RW)
 
 
Похожие темы
Форум Тема Автор Торрент Отв. Посл. сооб.
Военные хроники Великие боевые машины Второй Мировой: Танки стран Оси / The Great Fighting Machines of WW2: Axis Armour (Джонатан Мур) [1990 г., документальный, DVDRip] VO 90ytr90
2 | 0

0 | 1418

41

14.11.2013 17:31

Военные хроники Великие боевые машины Второй мировой войны. Бомбардировщики стран Оси / The Great Fighting Machines of WW2: Axis Bombers (Джонатан Мур) [1993 г., документальный, авиация, война, история, DVDRip] VO... ARI71
4 | 0

0 | 601

6

22.07.2016 12:24

Военные хроники Великие боевые машины Второй мировой войны. Истребители Союзников / The Great Fighting Machines of WW2: Allied Fighters (Джонатан Мур) [1990 г., документальный, авиация, война, история, DVDRip] VO ARI71
3 | 0

0 | 460

5

23.07.2016 18:01


Яндекс.Метрика powered by Sphinx


В Н И М А Н И Е
Сайт не распространяет и не хранит электронные версии произведений, а лишь бесплатно и без коммерческой выгоды (не требуя взамен платы,
SMS и т.д.) предоставляет доступ к создаваемому пользователями каталогу ссылок на торрент-файлы, которые содержат только списки хеш-сумм.
Убедительная просьба с жалобами обращаться напрямую к пользователю, разместившему торрент файл.

Вверх