Loading...
Error

Восхождение / The Climb / A Hero's Climb (Боб Свэм) [1997 г., драма, DVDRip] AVO (Сербин) + Original

Статистика раздачи
Размер:  1,5 GB   |    Зарегистрирован:  4 месяца 16 дней   |    Скачан:  1 раз

Полного источника не было: 3 часа

Сидов:  0  |  0 KB/s  ]   Личеров:  0  |  0 KB/s  ]

* - сиды/пиры с внешних источников

   
 
Автор Сообщение

makkol Пол:Муж

23-Июл-2016 11:12

Восхождение / The Climb / A Hero's Climb


Год выпуска: 1997
Жанр: драма
Производство: Франция , Новая Зеландия , Канада [Ellipse Animation, Isambard Productions Ltd]
Режиссер: Боб Свэм
В ролях: Джон Хёрт, Грегори Смит, Дэвид Стрэтэйрн, Стивен МакХэтти, Сет Смит, Сара Бакстон, Марла Соколофф, Мэттью Несс, Майкл Сассенте, Тина Регтиен
Сюжет фильма:
Балтимор, 1959 г. 12-летний Дэнни Хайнс стремится во что бы то ни стало доказать свою храбрость. Его отца Эрла все вокруг считают трусом, потому что он не участвовал ни во Второй мировой, ни в Корейской войнах. Мистер Лэнгер - их сосед, несдержанный, сильно пьющий старик, который когда-то занимался строительством дорог и мостов. Его яркие воспоминания и едкое остроумие распаляют воображение Дэнни. Мальчик твердо намерен покорить высочайшую точку в их городе - шестидесятидвухметровую радиовышку, которую скоро снесут. Несмотря на опасность, Дэнни считает, что, забравшись на вышку, он раз и навсегда докажет: его отец - не уклонист, как все считают, а он сам не потерпит нападок.

  • Мировая премьера: 11 марта 1998


Качество видео: DVDRip

Продолжительность: 01:36:44
Формат: AVI
Видео: XviD, 720x544 (4:3), 29.970 fps, 1821 kbps
Аудио #1: русский, авторский одноголосый закадровый (Юрий Сербин), AC3 2.0, 48 kHz, 192 kbps
Аудио #2: английский, оригинал, AC3 2.0, 48 kHz, 192 kbps

Код:

Формат                                   : AVI
Формат/Информация                        : Audio Video Interleave
Размер файла                             : 1,50 Гбайт
Продолжительность                        : 1 ч. 36 м.
Общий поток                              : 2222 Кбит/сек
Программа кодирования                    : VirtualDubMod 1.5.10.2 (build 2540/release)
Библиотека кодирования                   : VirtualDubMod build 2540/release

Видео
Идентификатор                            : 0
Формат                                   : MPEG-4 Visual
Профиль формата                          : Advanced Simple@L5
Параметр BVOP формата                    : 1
Параметр QPel формата                    : Нет
Параметр GMC формата                     : Без точки перехода
Параметр матрицы формата                 : Выборочная
Идентификатор кодека                     : XVID
Идентификатор кодека/Подсказка           : XviD
Продолжительность                        : 1 ч. 36 м.
Битрейт                                  : 1821 Кбит/сек
Ширина                                   : 720 пикселей
Высота                                   : 544 пикселя
Соотношение сторон                       : 4:3
Частота кадров                           : 29,970 кадров/сек
Цветовое пространство                    : YUV
Субдискретизация насыщенности            : 4:2:0
Битовая глубина                          : 8 бит
Тип развёртки                            : Прогрессивная
Метод сжатия                             : С потерями
Бит/(Пиксели*Кадры)                      : 0.155
Размер потока                            : 1,23 Гбайт (82%)
Библиотека кодирования                   : XviD 1.2.1 (UTC 2008-12-04)

Аудио #1
Идентификатор                            : 1
Формат                                   : AC-3
Формат/Информация                        : Audio Coding 3
Расширение режима                        : CM (complete main)
Параметр Endianness формата              : Big
Идентификатор кодека                     : 2000
Продолжительность                        : 1 ч. 36 м.
Вид битрейта                             : Постоянный
Битрейт                                  : 192 Кбит/сек
Каналы                                   : 2 канала
Расположение каналов                     : Front: L R
Частота                                  : 48,0 КГц
Метод сжатия                             : С потерями
Размер потока                            : 133 Мбайт (9%)
Выравнивание                             : Разделение по промежуткам
Продолжительность промежутка             : 33  мс. (1,00 видеокадр)
Время предзагрузки промежутка            : 500  мс.

Аудио #2
Идентификатор                            : 2
Формат                                   : AC-3
Формат/Информация                        : Audio Coding 3
Расширение режима                        : CM (complete main)
Параметр Endianness формата              : Big
Идентификатор кодека                     : 2000
Продолжительность                        : 1 ч. 36 м.
Вид битрейта                             : Постоянный
Битрейт                                  : 192 Кбит/сек
Каналы                                   : 2 канала
Расположение каналов                     : Front: L R
Частота                                  : 48,0 КГц
Метод сжатия                             : С потерями
Размер потока                            : 133 Мбайт (9%)
Выравнивание                             : Разделение по промежуткам
Продолжительность промежутка             : 33  мс. (1,00 видеокадр)
Время предзагрузки промежутка            : 500  мс.
picpicpicpicpic
Для увеличения картинки щелкните мышкой по превью

Этот торрент недоступен для скачивания без регистрации, однако доступен по публичной magnet-ссылке (источники с публичных трекеров). Перед использованием ссылки прочтите, пожалуйста Пользовательское соглашение, а также как можно дольше оставайтесь на раздаче! Для того, чтобы скачать сам торрент-файл (который видит больше источников), а также для того, чтобы поблагодарить релизера, вам необходимо зарегистрироваться. Если регистрироваться лень - вы можете также попробовать скачать релиз по нашим партнерским ссылкам ниже.

[underverse.su].t68347.torrent
Трекер: Зарегистрирован   [ 23.07.2016 11:12 ]  

Статус: проверено (by makkol at 23.07.2016 22:59)
Поблагодарили: пока никто не поблагодарил...
Тип торрента: публичный - доступные источники с открытых трекеров: 
Размер: 1,5 GB (занимает 0,34 DVDR, для записи нужно 1 болванка DVDR/RW)
 
 
Похожие темы
Форум Тема Автор Торрент Отв. Посл. сооб.
T Зарубежное кино [DVDRip, Low-Res HDRip, и т.д.] Восхождение Сокола / Falcon Rising (Эрни Барбараш) [2014 г., Боевик, Приключения, WEB-DLRip] VO (RUS, R.A.I.M.) Ведьмочка
3 | 0

0 | 813

38

28.09.2014 10:39

T Зарубежное кино [DVDRip, Low-Res HDRip, и т.д.] Восхождение Юпитер / Jupiter Ascending (Энди Вачовски, Лана Вачовски) [2015 г., фантастика, боевик, приключения, WEB-DLRip] Dub [iTunes] Паукан
46 | 0

0 | 1141

100

22.04.2015 10:49

T Зарубежное кино [DVDRip, Low-Res HDRip, и т.д.] Восхождение Юпитер / Jupiter Ascending (Энди Вачовски, Лана Вачовски) [2015 г., фантастика, боевик, приключения, WEB-DLRip] Dub [iTunes] Паукан
3 | 0

0 | 1105

111

22.04.2015 10:51

T Зарубежное кино [DVDRip, Low-Res HDRip, и т.д.] Восхождение Юпитер / Jupiter Ascending (Энди Вачовски / Andy Wachowski, Лана Вачовски / Lana Wachowski) [2014 г., фантастика, фэнтези, боевик, приключения, HDRip] Dub (iTunes) 90ytr90
206 | 1

1 | 785

72

15.05.2015 19:13

Зарубежное кино [DVDRip, Low-Res HDRip, и т.д.] Восхождение Юпитер / Jupiter Ascending (Энди Вачовски, Лана Вачовски) [2015 г., фантастика, боевик, приключения, HDRip] AVO [Юрий Живов] Паукан
24 | 0

0 | 612

20

30.08.2015 11:05

Зарубежное кино [DVDRip, Low-Res HDRip, и т.д.] Восхождение Крэйсов / The Rise of the Krays (Закари Адлер) [2015 г., криминал, HDRip] DVO makkol
7 | 0

0 | 554

57

28.11.2015 22:42

Кино СССР Восхождение (Лариса Шепитько) [1976 г., драма, военный, DVDRip] ARI71
12 | 0

0 | 732

6

25.03.2016 20:41

BBC Восхождение женщины / The Ascent of Woman (1-4 серии из 4) / (Хьюго МакГрегор) [2015 г., документальный, история, археология, исследования, HDTVRip 720p] DVO + Original (Eng) ARI71
0 | 0

2 | 993

1

11.10.2016 11:23

Личности Восхождение Ларисы Шепитько (Нонна Бокарева) [2008 г., документальный, биография, киноведение, культура, SatRip] ARI71
1 | 0

0 | 248

1

05.11.2016 19:35

T Зарубежное кино [HDDVDRip / BDRip / WEB-DL / HDTV 1080/720р] Восхождение Сокола / Falcon Rising (Эрни Барбараш) [2014 г., Боевик, Приключения, WEB-DL 720p] VO (RUS, R.A.I.M.) + Original (ENG) + Subs (ENG) Ведьмочка
0 | 0

0 | 872

29

28.09.2014 10:44


Яндекс.Метрика powered by Sphinx


В Н И М А Н И Е
Сайт не распространяет и не хранит электронные версии произведений, а лишь бесплатно и без коммерческой выгоды (не требуя взамен платы,
SMS и т.д.) предоставляет доступ к создаваемому пользователями каталогу ссылок на торрент-файлы, которые содержат только списки хеш-сумм.
Убедительная просьба с жалобами обращаться напрямую к пользователю, разместившему торрент файл.

Вверх