Loading...
Error

Бараны / Rams / Hrutar (Гримур Хаконарсон) [2015 г., драма, DVDRip] VO + Original

Статистика раздачи
Размер:  1,45 GB   |    Зарегистрирован:  4 месяца 12 дней   |    Скачан:  10 раз

Полного источника не было: 1 месяц 18 дней

Сидов:  0  |  0 KB/s  ]   Личеров:  0  |  0 KB/s  ]

* - сиды/пиры с внешних источников

   
 
Автор Сообщение

makkol Пол:Муж

22-Июл-2016 14:20

Бараны / Rams / Hrútar


Год выпуска: 2015
Жанр: драма
Производство: Исландия , Дания , Норвегия , Польша [Aeroplan Film, Film Farms, Netop Films]
Режиссер: Гримур Хаконарсон
В ролях: Сигурдур Сигурйонссон, Теодор Юлиуссон, Шарлотта Бювинг, Гуннар Йонссон
Сюжет фильма:
Далеко — далеко на маленькой ферме живут два брата, которые занимаются разведением овец. Им удалось вывести новую, ценную породу. Однако, когда в районе начинается эпидемия опасного заболевания, власти приказывают забить весь скот. Братья не остановятся ни перед чем, чтобы спасти своих любимых овец и баранов...

  • Мировая премьера: 28 мая 2015


Качество видео: DVDRip

Продолжительность: 01:29:06
Формат: AVI
Видео: XviD, 720x320 (2.25:1), 25.000 fps, 1743 kbps
Аудио #1: русский, любительский одноголосый закадровый, MP3 2.0, 44.1 kHz, 128 kbps
Аудио #2: исландский, оригинал, AC3 5.1, 48 kHz, 448 kbps
Награды Исландской Киноакадемии в категориях:

лучший фильм
лучший режиссер
лучшая мужская роль (Сигюрдюр Сигюрйоунссон)
лучший сценарий

Международные награды:

«Лучший фильм» в программе «Особый взгляд» Каннского кинофестиваля.

«Лучший фильм» в программе «Перспектива» Денверского кинофестиваля (США)

«Лучший фильм» - гран-при кинофестиваля в Любляне (Словения)

«Лучший иностранный фильм» - награда Ассоциации кинокритиков США

«Лучшая мужская роль» (Сигюрдюр Сигюрйоунссон) — награда кинофестиваля в Палм-Спрингс (США)

«Лучший фильм» - гран-при кинофестиваля в Цюрихе (Швейцария)

«Лучший фильм» - грин-при кинофестиваля в Тромсе (Норвегия)

Код:

Format : AVI
Format/Info : Audio Video Interleave
File size : 1.45 GiB
Duration : 1h 29mn
Overall bit rate : 2 335 Kbps
Writing application : VirtualDubMod 1.5.10.2 (build 2540/release)
Writing library : VirtualDubMod build 2540/release

Video
ID : 0
Format : MPEG-4 Visual
Format profile : Advanced Simple@L5
Format settings, BVOP : 1
Format settings, QPel : No
Format settings, GMC : No warppoints
Format settings, Matrix : Default (MPEG)
Codec ID : XVID
Codec ID/Hint : XviD
Duration : 1h 29mn
Bit rate : 1 745 Kbps
Width : 720 pixels
Height : 320 pixels
Display aspect ratio : 2.25:1
Frame rate : 25.000 fps
Color space : YUV
Chroma subsampling : 4:2:0
Bit depth : 8 bits
Scan type : Progressive
Compression mode : Lossy
Bits/(Pixel*Frame) : 0.303
Stream size : 1.09 GiB (75%)
Writing library : XviD 1.2.1 (UTC 2008-12-04)

Audio #1
ID : 1
Format : MPEG Audio
Format version : Version 1
Format profile : Layer 3
Mode : Joint stereo
Mode extension : MS Stereo
Codec ID : 55
Codec ID/Hint : MP3
Duration : 1h 29mn
Bit rate mode : Constant
Bit rate : 128 Kbps
Channel(s) : 2 channels
Sampling rate : 44.1 KHz
Compression mode : Lossy
Stream size : 81.6 MiB (5%)
Alignment : Split accross interleaves
Interleave, duration : 40 ms (1.00 video frame)
Interleave, preload duratio : 500 ms

Audio #2
ID : 2
Format : AC-3
Format/Info : Audio Coding 3
Mode extension : CM (complete main)
Format settings, Endianness : Big
Codec ID : 2000
Duration : 1h 29mn
Bit rate mode : Constant
Bit rate : 448 Kbps
Channel(s) : 6 channels
Channel positions : Front: L C R, Side: L R, LFE
Sampling rate : 48.0 KHz
Bit depth : 16 bits
Compression mode : Lossy
Stream size : 286 MiB (19%)
Alignment : Split accross interleaves
Interleave, duration : 40 ms (1.00 video frame)
Interleave, preload duratio : 500 ms
Перевод: М.Васильев
Озвучивание: Cmert
picpicpicpicpic
Для увеличения картинки щелкните мышкой по превью

Этот торрент недоступен для скачивания без регистрации, однако доступен по публичной magnet-ссылке (источники с публичных трекеров). Перед использованием ссылки прочтите, пожалуйста Пользовательское соглашение, а также как можно дольше оставайтесь на раздаче! Для того, чтобы скачать сам торрент-файл (который видит больше источников), а также для того, чтобы поблагодарить релизера, вам необходимо зарегистрироваться. Если регистрироваться лень - вы можете также попробовать скачать релиз по нашим партнерским ссылкам ниже.

[underverse.su].t68336.torrent
Трекер: Зарегистрирован   [ 22.07.2016 14:20 ]  

Статус: проверено (by makkol at 23.07.2016 22:53)
Поблагодарили: 1 человек
Тип торрента: публичный - доступные источники с открытых трекеров: 
Размер: 1,45 GB (занимает 1/3 DVDR, для записи нужно 1 болванка DVDR/RW)
 
 

Яндекс.Метрика powered by Sphinx


В Н И М А Н И Е
Сайт не распространяет и не хранит электронные версии произведений, а лишь бесплатно и без коммерческой выгоды (не требуя взамен платы,
SMS и т.д.) предоставляет доступ к создаваемому пользователями каталогу ссылок на торрент-файлы, которые содержат только списки хеш-сумм.
Убедительная просьба с жалобами обращаться напрямую к пользователю, разместившему торрент файл.

Вверх