Loading...
Error

Великие боевые машины Второй мировой войны. Бомбардировщики стран Оси / The Great Fighting Machines of WW2: Axis Bombers (Джонатан Мур) [1993 г., документальный, авиация, война, история, DVDRip] VO (den904) + Original (Eng)

Статистика раздачи
Размер:  1002 MB   |    Зарегистрирован:  4 месяца 18 дней   |    Скачан:  6 раз
Сидов:  1  |  0,8 KB/s  ]   Личеров:  0  |  0 KB/s  ]

* - сиды/пиры с внешних источников

   
 
Автор Сообщение

ARI71 Пол:Муж

22-Июл-2016 12:24

Великие боевые машины Второй мировой войны. Бомбардировщики стран Оси / The Great Fighting Machines of WW2: Axis Bombers


Год выпуска: 1993
Жанр: документальный, авиация, война, история
Страна: США
Режиссер: Джонатан Мур
Сюжет фильма:
Документальный фильм о бомбардировщиках стран Оси: нацистской Германии, фашистской Италии и империалистической Японии. История их создания и боевого применения во время Второй мировой войны. Немецкие: Юнкерс Ju-86, Ju-87 «Штука» и Ju-88, Хейнкель Не-111 и Не-177 Greif («Гриф»), малоизвестный биплан Хеншель Hs-123, Дорнье Do-17 и Do-217, Фокке-Вульф Fw 200 Condor («Кондор»), реактивный Арадо Ar-234 Blitz («Молния»). Итальянские бомбардировщики: КАНТ Z.1007 Alcione («Зимородок») и Савоя-Маркетти SM.79 Sparviero («Ястреб»). Японские: Мицубиси Ki-21, G3M «Нэлл» и G4M «Бетти». Кампании в Испании, Абиссинии и Китае, поля сражений в небе над Европой, Дальнего Востока и океанов, разрушительные бомбардировки мирных городов, пуски противокорабельных ракет Hs.293 и торпед, уничтожение кораблей Союзных войск.
Качество видео: DVDRip

Продолжительность: 00:58:32
Формат: AVI
Видео: XviD, 640x480, ~1994 kbps
Аудио #1: русский, одноголосый закадровый (любительский), AC3 2.0, ~192.00 kbps |den904|
Аудио #2: английский, AC3 2.0, ~192.00 kbps |оригинал|

Код:

Общее
Полное имя : D:\Бомбардировщики.стран.Оси.1993.XviD.DVDRip.alf62.avi
Формат : AVI
Формат/Информация : Audio Video Interleave
Размер файла : 1002 Мбайт
Продолжительность : 58 м.
Общий поток : 2393 Кбит/сек
Программа кодирования : VirtualDubModRus 1.5.10.2 (build 2542/release)
Библиотека кодирования : VirtualDubMod build 2542/release

Видео
Идентификатор : 0
Формат : MPEG-4 Visual
Профиль формата : Advanced Simple@L5
Параметр BVOP формата : 2
Параметр QPel формата : Нет
Параметр GMC формата : Без точки перехода
Параметр матрицы формата : Default (MPEG)
Идентификатор кодека : XVID
Идентификатор кодека/Подсказка : XviD
Продолжительность : 58 м.
Битрейт : 1994 Кбит/сек
Ширина : 640 пикселей
Высота : 480 пикселей
Соотношение сторон : 4:3
Частота кадров : 23,976 (23976/1000) кадра/сек
Цветовое пространство : YUV
Субдискретизация насыщенности : 4:2:0
Битовая глубина : 8 бит
Тип развёртки : Прогрессивная
Метод сжатия : С потерями
Бит/(Пиксели*Кадры) : 0.271
Размер потока : 835 Мбайт (83%)
Библиотека кодирования : XviD 73

Аудио #1
Идентификатор : 1
Формат : AC-3
Формат/Информация : Audio Coding 3
Расширение режима : CM (complete main)
Параметр Endianness формата : Big
Идентификатор кодека : 2000
Продолжительность : 58 м.
Вид битрейта : Постоянный
Битрейт : 192 Кбит/сек
Каналы : 2 канала
Расположение каналов : Front: L R
Частота : 48,0 КГц
Частота кадров : 31,250 кадров/сек (1536 spf)
Метод сжатия : С потерями
Размер потока : 80,4 Мбайт (8%)
Выравнивание : Разделение по промежуткам
Продолжительность промежутка : 42 мс. (1,00 видеокадр)
Время предзагрузки промежутка : 500 мс.

Аудио #2
Идентификатор : 2
Формат : AC-3
Формат/Информация : Audio Coding 3
Расширение режима : CM (complete main)
Параметр Endianness формата : Big
Идентификатор кодека : 2000
Продолжительность : 58 м.
Вид битрейта : Постоянный
Битрейт : 192 Кбит/сек
Каналы : 2 канала
Расположение каналов : Front: L R
Частота : 48,0 КГц
Частота кадров : 31,250 кадров/сек (1536 spf)
Метод сжатия : С потерями
Размер потока : 80,4 Мбайт (8%)
Выравнивание : Разделение по промежуткам
Продолжительность промежутка : 42 мс. (1,00 видеокадр)
Время предзагрузки промежутка : 500 мс.
picpicpicpic
Для увеличения картинки щелкните мышкой по превью

Этот торрент недоступен для скачивания без регистрации, однако доступен по публичной magnet-ссылке (источники с публичных трекеров). Перед использованием ссылки прочтите, пожалуйста Пользовательское соглашение, а также как можно дольше оставайтесь на раздаче! Для того, чтобы скачать сам торрент-файл (который видит больше источников), а также для того, чтобы поблагодарить релизера, вам необходимо зарегистрироваться. Если регистрироваться лень - вы можете также попробовать скачать релиз по нашим партнерским ссылкам ниже.

[underverse.su].t68332.torrent
Трекер: Зарегистрирован   [ 22.07.2016 12:24 ]  

Статус: проверено (by makkol at 23.07.2016 21:31)
Поблагодарили: пока никто не поблагодарил...
Тип торрента: публичный - доступные источники с открытых трекеров: 
Размер: 1002 MB (занимает 0,22 DVDR, для записи нужно 1 болванка DVDR/RW)
 
 
Похожие темы
Форум Тема Автор Торрент Отв. Посл. сооб.
Военные хроники Великие боевые машины Второй Мировой: Танки стран Оси / The Great Fighting Machines of WW2: Axis Armour (Джонатан Мур) [1990 г., документальный, DVDRip] VO 90ytr90
2 | 0

0 | 1422

41

14.11.2013 17:31

Военные хроники Великие боевые машины Второй мировой войны. Истребители стран Оси / The Great Fighting Machines of WW2: Axis Fighters (Джонатан Мур) [1993 г., документальный, авиация, война, история, DVDRip] VO... ARI71
2 | 0

0 | 513

6

23.07.2016 12:13

Военные хроники Великие боевые машины Второй мировой войны. Истребители Союзников / The Great Fighting Machines of WW2: Allied Fighters (Джонатан Мур) [1990 г., документальный, авиация, война, история, DVDRip] VO ARI71
3 | 0

0 | 461

5

23.07.2016 18:01


Яндекс.Метрика powered by Sphinx


В Н И М А Н И Е
Сайт не распространяет и не хранит электронные версии произведений, а лишь бесплатно и без коммерческой выгоды (не требуя взамен платы,
SMS и т.д.) предоставляет доступ к создаваемому пользователями каталогу ссылок на торрент-файлы, которые содержат только списки хеш-сумм.
Убедительная просьба с жалобами обращаться напрямую к пользователю, разместившему торрент файл.

Вверх