Loading...
Error

Александр Зацепин. Этот мир придуман не мной (Филипп Сурков) [2010 г., документальный, биография, искусство, культура, SatRip]

Статистика раздачи
Размер:  451 MB   |    Зарегистрирован:  4 месяца 14 дней   |    Скачан:  1 раз

Полного источника не было: 4 месяца 12 дней

Сидов:  0  |  0 KB/s  ]   Личеров:  0  |  0 KB/s  ]

* - сиды/пиры с внешних источников

   
 
Автор Сообщение

ARI71 Пол:Муж

21-Июл-2016 18:16

Александр Зацепин. Этот мир придуман не мной


Год выпуска: 2010
Жанр: документальный, биография, искусство, культура
Страна: Россия «Студия 8»
Режиссер: Филипп Сурков
В ролях: Александр Зацепин
Сюжет фильма:
Документальный фильм приурочен к 85-летию Александра Зацепина. В этом фильме речь пойдет о жизни и творческой судьбе одного из лучших композиторов нашей эпохи. Он сочинял музыку, которая мгновенно покоряла сердца: яркие, заводные мелодии сразу же становились хитами, их заказывали в ресторанах, напевали возлюбленным и мурлыкали себе под нос. Его музыка звучит в наших самых любимых фильмах – "Операции "Ы", "Бриллиантовой руке", "Кавказской пленнице" и многих других. Почему Леонид Гайдай пригласил для совместной работы именно Зацепина? Как возник его творческий союз с Аллой Пугачевой, и почему вокруг их дуэта было столько разговоров и домыслов? По какой причине большинство коллег-композиторов тайно или явно недолюбливали Зацепина, и за что с легкой руки поэта Леонида Дербенева его стали называть "железным дровосеком"? Где и как Александр Сергеевич живет и работает сегодня? В фильме принимают участие: Михаил Боярский, Дмитрий Харатьян, Марина Хлебникова, Ксения Георгиади, Вера Дербенева, вдова поэта Леонида Дербенева, Юрий Рогозин и другие.

Алекса́ндр Серге́евич Заце́пин (род. 10 марта 1926, Новосибирск) — советский и российский композитор. Получил известность как автор музыки ко многим популярным фильмам. Народный артист Российской Федерации (2003), Заслуженный деятель искусств Российской Федерации (1997)

Качество видео: SatRip

Продолжительность: 00:38:29
Формат: AVI
Видео: XviD, 640x480, ~1500 kbps
Аудио: русский, (оригинал), MP3 2.0, ~128.00 kbps

Код:

Общее
Полное имя : D:\Alexsander.Zacepin.Etot.mir.pridyman.ne.mnoi.(2011).XviD.avi
Формат : AVI
Формат/Информация : Audio Video Interleave
Размер файла : 451 Мбайт
Продолжительность : 38 м.
Общий поток : 1638 Кбит/сек
Программа кодирования : VirtualDubMod 1.5.10.2 (build 2540/release)
Библиотека кодирования : VirtualDubMod build 2540/release

Видео
Идентификатор : 0
Формат : MPEG-4 Visual
Профиль формата : Advanced Simple@L5
Параметр BVOP формата : 2
Параметр QPel формата : Нет
Параметр GMC формата : Без точки перехода
Параметр матрицы формата : Default (MPEG)
Режим смешивания : Сжатый битовый поток
Идентификатор кодека : XVID
Идентификатор кодека/Подсказка : XviD
Продолжительность : 38 м.
Битрейт : 1500 Кбит/сек
Ширина : 640 пикселей
Высота : 480 пикселей
Соотношение сторон : 4:3
Частота кадров : 25,000 кадров/сек
Цветовое пространство : YUV
Субдискретизация насыщенности : 4:2:0
Битовая глубина : 8 бит
Тип развёртки : Прогрессивная
Метод сжатия : С потерями
Бит/(Пиксели*Кадры) : 0.195
Размер потока : 413 Мбайт (92%)
Библиотека кодирования : XviD 58

Аудио
Идентификатор : 1
Формат : MPEG Audio
Версия формата : Version 1
Профиль формата : Layer 3
Режим : Joint stereo
Расширение режима : MS Stereo
Идентификатор кодека : 55
Идентификатор кодека/Подсказка : MP3
Продолжительность : 38 м.
Вид битрейта : Постоянный
Битрейт : 128 Кбит/сек
Каналы : 2 канала
Частота : 48,0 КГц
Метод сжатия : С потерями
Размер потока : 35,2 Мбайт (8%)
Выравнивание : Соединение по промежуткам
Продолжительность промежутка : 40 мс. (1,00 видеокадр)
Время предзагрузки промежутка : 504 мс.
picpicpicpicpic
Для увеличения картинки щелкните мышкой по превью

Этот торрент недоступен для скачивания без регистрации, однако доступен по публичной magnet-ссылке (источники с публичных трекеров). Перед использованием ссылки прочтите, пожалуйста Пользовательское соглашение, а также как можно дольше оставайтесь на раздаче! Для того, чтобы скачать сам торрент-файл (который видит больше источников), а также для того, чтобы поблагодарить релизера, вам необходимо зарегистрироваться. Если регистрироваться лень - вы можете также попробовать скачать релиз по нашим партнерским ссылкам ниже.

[underverse.su].t68310.torrent
Трекер: Зарегистрирован   [ 21.07.2016 18:16 ]  

Статус: проверено (by 90ytr90 at 21.07.2016 18:59)
Поблагодарили: пока никто не поблагодарил...
Тип торрента: публичный - доступные источники с открытых трекеров: 
Размер: 451 MB (занимает 0,1 DVDR, для записи нужно 1 болванка DVDR/RW)
 
 
Похожие темы
Форум Тема Автор Торрент Отв. Посл. сооб.
Зарубежное кино [DVDRip, Low-Res HDRip, и т.д.] Александр / Alexander (Оливер Стоун) [2004 г., боевик, мелодрама, драма, приключения, военный, биография, история, ..., HD DVDRip] Joey
1 | 0

1 | 1201

7

17.06.2010 12:55

Зарубежное кино [DVDRip, Low-Res HDRip, и т.д.] Александр / Alexander (Оливер Стоун) [2004 г., боевик, драма, мелодрама, приключения, военный, биография, история, HDRip ] Dub ryzhkovroman
0 | 0

6 | 1279

1

18.02.2013 17:27

Зарубежное кино [DVDRip, Low-Res HDRip, и т.д.] Александр и ужасный, кошмарный, нехороший, очень плохой день / Alexander and the Terrible, Horrible, No Good, Very Bad Day (Мигель Артета / Miguel Arteta) [2014 г., комедия, семейный, HDRip] Dub 90ytr90
18 | 0

0 | 431

14

09.02.2015 16:55

Зарубежное кино [DVDRip, Low-Res HDRip, и т.д.] Александр и ужасный, кошмарный, нехороший, очень плохой день / Alexander and the Terrible, Horrible, No Good, Very Bad Day (Мигель Артета / Miguel Arteta) [2014 г., комедия, семейный, HDRip] Dub 90ytr90
1 | 0

0 | 463

8

09.02.2015 17:33

Кино СССР Александр Невский (Сергей Эйзенштейн, Дмитрий Васильев, Борис Иванов) [1938 г., история, DVDRip] 90ytr90
2 | 0

0 | 842

6

06.12.2014 21:56

Информационно-аналитические передачи Александр Невзоров: "Уроки атеизма" [2012 г., документальный, TVRip] матроскин
1 | 0

1 | 1297

6

27.04.2013 06:30

Исторические фильмы Александр Великий / Alexander der Grobe (1-2 серии из 2) / (Мартин Казаро Мендез, Кристиан Твенте) [2014 г., документальный, игровой, история, SatRip] DVO (Видеофильм ТВ) ARI71
5 | 0

1 | 428

5

16.10.2016 08:07

Личности Александр Блок. Я медленно сходил с ума (Анна Филимонова) [2016 г., документальный, биография, SatRip] ARI71
0 | 0

0 | 260

0

21.11.2016 14:54

Личности Александр Кайдановский. По лезвию бритвы (Лариса Кичаева) [2016 г., документальный, кинематограф, биография, IPTVRip] ARI71
4 | 0

1 | 552

1

02.10.2016 18:01

Личности Александр Кайдановский. Сжимая лезвие в ладони (Вера Травкина) [2016 г., документальный, биография, SatRip] ARI71
0 | 0

0 | 558

6

23.07.2016 09:00


Яндекс.Метрика powered by Sphinx


В Н И М А Н И Е
Сайт не распространяет и не хранит электронные версии произведений, а лишь бесплатно и без коммерческой выгоды (не требуя взамен платы,
SMS и т.д.) предоставляет доступ к создаваемому пользователями каталогу ссылок на торрент-файлы, которые содержат только списки хеш-сумм.
Убедительная просьба с жалобами обращаться напрямую к пользователю, разместившему торрент файл.

Вверх