Loading...
Error

Егор Гайдар. Долгое Время (Павел Шеремет) [2010 г., документальный, биография, история, политика, TVRip]

Статистика раздачи
Размер:  496 MB   |    Зарегистрирован:  4 месяца 14 дней   |    Скачан:  2 раза

Полного источника не было: 4 месяца 13 дней

Сидов:  0  |  0 KB/s  ]   Личеров:  0  |  0 KB/s  ]

* - сиды/пиры с внешних источников

   
 
Автор Сообщение

ARI71 Пол:Муж

21-Июл-2016 13:53

Егор Гайдар. Долгое Время


Год выпуска: 2010
Жанр: документальный, биография, история, политика
Страна: Россия ООО «Студия 4», Телеканал НТВ
Режиссер: Павел Шеремет
В ролях: Анатолий Чубайс, Борис Немцов, Татьяна Юмашева, Руслан Хасбулатов, Виктор Геращенко
Сюжет фильма:
Документальный фильм снят после смерти Егора Гайдара. Его делали как раз к 19 марта, когда Егору Тимуровичу исполнилось бы 54 года. Вице-премьер Алексей Кудрин, глава Роснано Анатолий Чубайс, бывший министр экономики Андрей Нечаев, научный руководитель Высшей школы экономики Евгений Ясин, Борис Немцов, другие соратники и друзья Гайдара вспоминают о том, как рождалась программа радикальных экономических реформ. Татьяна Юмашева и Анатолий Чубайс рассказывают, как вместе с Гайдаром в 1996 году удержали Бориса Ельцина от отмены президентских выборов и введения в стране чрезвычайного положения. Мария и Петр Гайдар — дети от первого брака — рассказывают о своих отношениях с отцом, вспоминают их совместные походы за грибами или на охоту и… последнюю встречу. Впервые зрители побывают в квартире Егора Гайдара в доме на Осенней улице, где он жил по-соседству с Борисом Ельциным. Помощник Гайдара Елена Михайловна покажет рабочий кабинет Егора Тимуровича, который превратился в библиотеку, где хранится 7 тысяч книг или их ксерокопий.Противники и критики Егора Гайдара — бывший спикер Верховного Совета Руслан Хасбулатов и председатель Центрального банка РФ Виктор Геращенко — дадут свои оценки событиям тех лет. В фильме есть драматические эпизоды общения Гайдара с людьми на улицах страны, в разных городах. Они очень точно передают атмосферу ненависти и неприятия шоковой терапии многими россиянами. В фильме использованы фрагменты уникального интервью Егора Гайдара. Оно было записано несколько лет назад, но так и не вышло в эфир. Гайдар считал, что его надо дополнить, что спешить с воспоминаниями о тех драматических и далеких временах не стоит, что впереди много времени… В результате рассказ Егора Гайдара о его жизни и масштабной трансформации страны сегодня звучит как завещание.

Его́р Тиму́рович Гайда́р (19 марта 1956, Москва — 16 декабря 2009, Успенское, Московская область) — российский государственный и политический деятель, экономист, доктор экономических наук.

Качество видео: TVRip

Продолжительность: 00:51:42
Формат: AVI
Видео: DivX 5, 704x576, ~1199 kbps
Аудио: русский, (оригинал), MP3 2.0, ~128.00 kbps

Код:

Общее
Полное имя : D:\Егор Гайдар. Долгое время.avi
Формат : AVI
Формат/Информация : Audio Video Interleave
Размер файла : 496 Мбайт
Продолжительность : 51 м.
Общий поток : 1341 Кбит/сек
Программа кодирования : Lavf51.12.1
Библиотека кодирования : Boilsoft AVI tool build 1/release

Видео
Идентификатор : 0
Формат : MPEG-4 Visual
Профиль формата : Simple@L1
Параметр BVOP формата : Нет
Параметр QPel формата : Нет
Параметр GMC формата : Без точки перехода
Параметр матрицы формата : Default (H.263)
Идентификатор кодека : DX50
Идентификатор кодека/Подсказка : DivX 5
Продолжительность : 51 м.
Битрейт : 1199 Кбит/сек
Ширина : 704 пикселя
Высота : 576 пикселей
Соотношение сторон : 1,222
Частота кадров : 29,970 кадров/сек
Цветовое пространство : YUV
Субдискретизация насыщенности : 4:2:0
Битовая глубина : 8 бит
Тип развёртки : Прогрессивная
Метод сжатия : С потерями
Бит/(Пиксели*Кадры) : 0.099
Размер потока : 444 Мбайт (89%)
Библиотека кодирования : Lavc51.40.4

Аудио
Идентификатор : 1
Формат : MPEG Audio
Версия формата : Version 1
Профиль формата : Layer 3
Режим : Joint stereo
Расширение режима : MS Stereo
Идентификатор кодека : 55
Идентификатор кодека/Подсказка : MP3
Продолжительность : 51 м.
Вид битрейта : Постоянный
Битрейт : 128 Кбит/сек
Каналы : 2 канала
Частота : 44,1 КГц
Метод сжатия : С потерями
Размер потока : 47,3 Мбайт (10%)
Выравнивание : Соединение по промежуткам
Продолжительность промежутка : 26 мс. (0,78 видеокадр)
Время предзагрузки промежутка : 522 мс.
picpicpicpicpic
Для увеличения картинки щелкните мышкой по превью

Этот торрент недоступен для скачивания без регистрации, однако доступен по публичной magnet-ссылке (источники с публичных трекеров). Перед использованием ссылки прочтите, пожалуйста Пользовательское соглашение, а также как можно дольше оставайтесь на раздаче! Для того, чтобы скачать сам торрент-файл (который видит больше источников), а также для того, чтобы поблагодарить релизера, вам необходимо зарегистрироваться. Если регистрироваться лень - вы можете также попробовать скачать релиз по нашим партнерским ссылкам ниже.

[underverse.su].t68290.torrent
Трекер: Зарегистрирован   [ 21.07.2016 13:53 ]  

Статус: проверено (by 90ytr90 at 21.07.2016 18:30)
Поблагодарили: пока никто не поблагодарил...
Тип торрента: публичный - доступные источники с открытых трекеров: 
Размер: 496 MB (занимает 0,11 DVDR, для записи нужно 1 болванка DVDR/RW)
 
 

Яндекс.Метрика powered by Sphinx


В Н И М А Н И Е
Сайт не распространяет и не хранит электронные версии произведений, а лишь бесплатно и без коммерческой выгоды (не требуя взамен платы,
SMS и т.д.) предоставляет доступ к создаваемому пользователями каталогу ссылок на торрент-файлы, которые содержат только списки хеш-сумм.
Убедительная просьба с жалобами обращаться напрямую к пользователю, разместившему торрент файл.

Вверх