Loading...
Error

Странные каникулы / Мальчишки с потерянного острова / Strange Holiday / Boys of lost island (Менде Браун) [1970 г., приключения, семейный, DVDRip] AVO (А.Алексеев)

Статистика раздачи
Размер:  1,26 GB   |    Зарегистрирован:  4 месяца 12 дней   |    Скачан:  1 раз

Полного источника не было: 2 часа 14 минут

Сидов:  0  |  0 KB/s  ]   Личеров:  0  |  0 KB/s  ]

* - сиды/пиры с внешних источников

   
 
Автор Сообщение

makkol Пол:Муж

21-Июл-2016 11:50

Странные каникулы / Мальчишки с потерянного острова
Strange Holiday / Boys of lost island


Год выпуска: 1970
Жанр: приключения, семейный
Производство: Австралия [Mass-Brown Productions]
Режиссер: Менде Браун
В ролях: Жайме Гамильтон, Марк Хили, Жайме Массанж, Ван Александер, Росс Уильямс, Саймон Эспри, Питер Александр, Майкл Бэрри, Марк Ли, Ларри Крэйн
Сюжет фильма:
Группа мальчишек оказалась на пустынном острове. После того, как шторм разбил их лодку, они поняли, что единственный способ выжить - это держаться вместе. Но когда другой шторм выбросил на берег другую лодку, они столкнулись со страшным преступлением. Им предстоит быстро думать и принимать решения, чтобы вернуться домой живыми...

По мотивам романа Жюля Верна «Два года каникул»

  • Мировая премьера: 28 февраля 1970


Качество видео: DVDRip

Продолжительность: 01:08:24
Формат: AVI
Видео: XviD, 640x480 (4:3), 23.976 fps, 2434 kbps
Аудио: русский, авторский одноголосый закадровый (Антон Алексеев), AC3 2.0, 48 kHz, 192 kbps

Код:

Формат                                   : AVI
Формат/Информация                        : Audio Video Interleave
Размер файла                             : 1,26 Гбайт
Продолжительность                        : 1 ч. 8 м.
Общий поток                              : 2636 Кбит/сек
Программа кодирования                    : VirtualDubMod 1.5.10.2 (build 2540/release)
Библиотека кодирования                   : VirtualDubMod build 2540/release

Видео
Идентификатор                            : 0
Формат                                   : MPEG-4 Visual
Профиль формата                          : Advanced Simple@L5
Параметр BVOP формата                    : 1
Параметр QPel формата                    : Нет
Параметр GMC формата                     : Без точки перехода
Параметр матрицы формата                 : Выборочная
Идентификатор кодека                     : XVID
Идентификатор кодека/Подсказка           : XviD
Продолжительность                        : 1 ч. 8 м.
Битрейт                                  : 2434 Кбит/сек
Ширина                                   : 640 пикселей
Высота                                   : 480 пикселей
Соотношение сторон                       : 4:3
Частота кадров                           : 23,976 кадра/сек
Цветовое пространство                    : YUV
Субдискретизация насыщенности            : 4:2:0
Битовая глубина                          : 8 бит
Тип развёртки                            : Прогрессивная
Метод сжатия                             : С потерями
Бит/(Пиксели*Кадры)                      : 0.330
Размер потока                            : 1,16 Гбайт (92%)
Библиотека кодирования                   : XviD 1.2.1 (UTC 2008-12-04)

Аудио
Идентификатор                            : 1
Формат                                   : AC-3
Формат/Информация                        : Audio Coding 3
Расширение режима                        : CM (complete main)
Параметр Endianness формата              : Big
Идентификатор кодека                     : 2000
Продолжительность                        : 1 ч. 8 м.
Вид битрейта                             : Постоянный
Битрейт                                  : 192 Кбит/сек
Каналы                                   : 2 канала
Расположение каналов                     : Front: L R
Частота                                  : 48,0 КГц
Метод сжатия                             : С потерями
Размер потока                            : 93,9 Мбайт (7%)
Выравнивание                             : Разделение по промежуткам
Продолжительность промежутка             : 42  мс. (1,00 видеокадр)
Время предзагрузки промежутка            : 500  мс.
Язык                                     : Russian
picpicpicpicpic
Для увеличения картинки щелкните мышкой по превью

Этот торрент недоступен для скачивания без регистрации, однако доступен по публичной magnet-ссылке (источники с публичных трекеров). Перед использованием ссылки прочтите, пожалуйста Пользовательское соглашение, а также как можно дольше оставайтесь на раздаче! Для того, чтобы скачать сам торрент-файл (который видит больше источников), а также для того, чтобы поблагодарить релизера, вам необходимо зарегистрироваться. Если регистрироваться лень - вы можете также попробовать скачать релиз по нашим партнерским ссылкам ниже.

[underverse.su].t68286.torrent
Трекер: Зарегистрирован   [ 21.07.2016 11:50 ]  

Статус: проверено (by makkol at 23.07.2016 22:40)
Поблагодарили: пока никто не поблагодарил...
Тип торрента: публичный - доступные источники с открытых трекеров: 
Размер: 1,26 GB (занимает 0,29 DVDR, для записи нужно 1 болванка DVDR/RW)
 
 

Яндекс.Метрика powered by Sphinx


В Н И М А Н И Е
Сайт не распространяет и не хранит электронные версии произведений, а лишь бесплатно и без коммерческой выгоды (не требуя взамен платы,
SMS и т.д.) предоставляет доступ к создаваемому пользователями каталогу ссылок на торрент-файлы, которые содержат только списки хеш-сумм.
Убедительная просьба с жалобами обращаться напрямую к пользователю, разместившему торрент файл.

Вверх