Loading...
Error

Против природы 2: Выжить в Серенгети / Against the Wild 2: Survive the Serengeti (Ричард Боддингтон) [2016 г., приключения, WEB-DLRip] MVO

Статистика раздачи
Размер:  1,37 GB   |    Зарегистрирован:  4 месяца 17 дней   |    Скачан:  12 раз

Полного источника не было: 3 месяца 16 дней

Сидов:  0  |  0 KB/s  ]   Личеров:  0  |  0 KB/s  ]

* - сиды/пиры с внешних источников

   
 
Автор Сообщение

makkol Пол:Муж

19-Июл-2016 21:12

Против природы 2: Выжить в Серенгети
Against the Wild 2: Survive the Serengeti


Год выпуска: 2016
Жанр: приключения
Производство: Канада , ЮАР [Against The Wild 2 I, Enigma Pictures, Sudden Storm Productions]
Режиссер: Ричард Боддингтон
В ролях: Джери Райан, Элла Бэллентайн, Джон Пол Руттан, Хломла Дандала, Эшли Доудс, Лита Мбутума, Мандла Шонгви, Чова Чишуру Три
Сюжет фильма:
Легкомоторный самолет терпит аварию в африканской саванне. К счастью, никто серьезно не пострадал в этой катастрофе, однако летчику нужна квалифицированная медицинская помощь, которую пассажиры этого рейса - брат с сестрой - не в состоянии оказать. По настоянию брата они со своей собакой отправляются на поиски поселения, откуда можно было бы вызвать помощь. Вот только путешествие оказалось намного длиннее, чем ребята предполагали.

  • Мировая премьера: 26 февраля 2016


Качество видео: WEB-DLRip

Продолжительность: 01:31:13
Формат: AVI
Видео: XviD, 720x400 (16:9), 23.976 fps, 1761 kbps
Аудио: русский, любительский многоголосый закадровый (Parovoz Production), AC3 2.0, 48 kHz, 384 kbps

Код:

Формат                                   : AVI
Формат/Информация                        : Audio Video Interleave
Размер файла                             : 1,37 Гбайт
Продолжительность                        : 1 ч. 31 м.
Общий поток                              : 2154 Кбит/сек
Название фильма                          : MoreFilms.TV
Программа кодирования                    : VirtualDubMod 1.5.10.2 (build 2540/release)
Авторское право                          : MoreFilms.TV

Видео
Идентификатор                            : 0
Формат                                   : MPEG-4 Visual
Профиль формата                          : Advanced Simple@L5
Параметр BVOP формата                    : 2
Параметр QPel формата                    : Нет
Параметр GMC формата                     : Без точки перехода
Параметр матрицы формата                 : Выборочная
Идентификатор кодека                     : XVID
Идентификатор кодека/Подсказка           : XviD
Продолжительность                        : 1 ч. 31 м.
Битрейт                                  : 1761 Кбит/сек
Ширина                                   : 720 пикселей
Высота                                   : 400 пикселей
Соотношение сторон                       : 16:9
Частота кадров                           : 23,976 кадра/сек
Цветовое пространство                    : YUV
Субдискретизация насыщенности            : 4:2:0
Битовая глубина                          : 8 бит
Тип развёртки                            : Прогрессивная
Метод сжатия                             : С потерями
Бит/(Пиксели*Кадры)                      : 0.255
Размер потока                            : 1,12 Гбайт (82%)
Библиотека кодирования                   : XviD 1.2.1 (UTC 2008-12-04)

Аудио
Идентификатор                            : 1
Формат                                   : AC-3
Формат/Информация                        : Audio Coding 3
Расширение режима                        : CM (complete main)
Параметр Endianness формата              : Big
Идентификатор кодека                     : 2000
Продолжительность                        : 1 ч. 31 м.
Вид битрейта                             : Постоянный
Битрейт                                  : 384 Кбит/сек
Каналы                                   : 2 канала
Расположение каналов                     : Front: L R
Частота                                  : 48,0 КГц
Метод сжатия                             : С потерями
Размер потока                            : 251 Мбайт (18%)
Выравнивание                             : Разделение по промежуткам
Продолжительность промежутка             : 42  мс. (1,00 видеокадр)
Время предзагрузки промежутка            : 500  мс.
Присутствует реклама


picpicpicpicpic
Для увеличения картинки щелкните мышкой по превью

Этот торрент недоступен для скачивания без регистрации, однако доступен по публичной magnet-ссылке (источники с публичных трекеров). Перед использованием ссылки прочтите, пожалуйста Пользовательское соглашение, а также как можно дольше оставайтесь на раздаче! Для того, чтобы скачать сам торрент-файл (который видит больше источников), а также для того, чтобы поблагодарить релизера, вам необходимо зарегистрироваться. Если регистрироваться лень - вы можете также попробовать скачать релиз по нашим партнерским ссылкам ниже.

[underverse.su].t68250.torrent
Трекер: Зарегистрирован   [ 19.07.2016 21:12 ]  

Статус: проверено (by makkol at 23.07.2016 22:21)
Поблагодарили: пока никто не поблагодарил...
Тип торрента: публичный - доступные источники с открытых трекеров: 
Размер: 1,37 GB (занимает 0,31 DVDR, для записи нужно 1 болванка DVDR/RW)
 
 
Похожие темы
Форум Тема Автор Торрент Отв. Посл. сооб.
Зарубежное кино [DVDRip, Low-Res HDRip, и т.д.] Против природы / Against the Wild (Ричард Боддингтон) [2014 г., приключения, семейный, драма, WEB-DLRip] VO + Original + Subs makkol
20 | 0

0 | 429

8

19.07.2016 21:32

Popular feature films Против природы / Against the Wild (Ричард Боддингтон / Richard Boddington) [2014 г., приключения, семейный, драма, HDRip] Sub (Rus) + Original (Eng) 90ytr90
22 | 1

0 | 628

12

14.05.2014 18:20


Яндекс.Метрика powered by Sphinx


В Н И М А Н И Е
Сайт не распространяет и не хранит электронные версии произведений, а лишь бесплатно и без коммерческой выгоды (не требуя взамен платы,
SMS и т.д.) предоставляет доступ к создаваемому пользователями каталогу ссылок на торрент-файлы, которые содержат только списки хеш-сумм.
Убедительная просьба с жалобами обращаться напрямую к пользователю, разместившему торрент файл.

Вверх