Loading...
Error

И не было лучше брата. Братья Вайнеры (Ирина Смирнова) [2011 г., документальный, биография, SatRip]

Статистика раздачи
Размер:  501 MB   |    Зарегистрирован:  4 месяца 17 дней   |    Скачан:  1 раз

Полного источника не было: 4 месяца 16 дней

Сидов:  0  |  0 KB/s  ]   Личеров:  0  |  0 KB/s  ]

* - сиды/пиры с внешних источников

   
 
Автор Сообщение

ARI71 Пол:Муж

19-Июл-2016 18:18

И не было лучше брата. Братья Вайнеры


Год выпуска: 2011
Жанр: документальный, биография
Страна: Россия Первый канал
Режиссер: Ирина Смирнова
В ролях: Георгий Вайнер, Генрих Боровик, Фазиль Искандер, Сергей Шакуров, Станислав Говорухин
Сюжет фильма:
Братья Вайнеры, Аркадий и Георгий, – легендарный писательский дуэт. Именно по их роману и сценарию был снят знаменитый сериал "Место встречи изменить нельзя". Поклонники таланта братьев Вайнеров не раз задавались вопросом: как это – писать вдвоем? Загадка писательского феномена осталась неразгаданной – братья только отшучивались, что у них есть необычная пишущая машинка с двойной кареткой. Очевидно лишь одно – результат их работы не был просто механическим сложением огромного опыта работы Аркадия в МУРе в качестве следователя по особо важным делам и журналистского таланта Георгия. Братья мыслили и творили как две половинки единого целого.
Качество видео: SatRip

Продолжительность: 00:52:04
Формат: AVI
Видео: XviD, 704x416, ~1207 kbps
Аудио: русский, (оригинал), MP3 2.0, ~128.00 kbps
Детство Аркаши и Жоры пришлось на тяжелейшее военное время. В эвакуации в Самарканде семья голодала. Случай, когда мальчишки нашли на улице буханку белого хлеба, запомнился им навсегда. Мать потребовала выбросить хлеб, опасаясь, что он отравлен диверсантами, но голодные дети не смогли устоять перед искушением. Прежде, чем накормить младшего брата, старший Аркадий испытал хлеб на себе.

Так родилось их братство, самое сильное чувство в жизни Вайнеров. Они относились друг к другу с необычайной нежностью и преданностью. Аркадий защищал Жору от хулиганов в школе, спасал из тюрьмы, когда через младшего брата бывшие начальники пытались поквитаться со старшим. Долгое время, когда Аркадий был уже женат на Софье Дарьяловой, Георгий жил вместе с семьей брата. И дочь Аркадия Наталья Дарьялова считала Георгия своим вторым папой.

Личная жизнь Георгия долго не складывалась. Женой Георгия стала Александра (Шуня) Вайнер, с которой он прожил долгую и счастливую жизнь.

И Аркадий, и Георгий поставили под угрозу не только свое семейное счастье, но и собственные жизни, когда решили написать дилогию об ужасах тоталитарной эпохи – романы "Петля и камень в зеленой траве" и "Евангелие от палача". Чтобы собрать материал о жертвах и убийцах, им пришлось провести собственное расследование. Хранить дома рукописи было крайне опасно. Братья пересняли текст на микропленку, ее при первой же возможности вывезли за границу, а рукописи закопали в лесу. Издать романы удалось лишь после перестройки.

В 1990-м году, как только открылся железный занавес, Георгий уехал жить и работать в США. Чуть раньше Георгия в Нью-Йорк перебралась дочь Аркадия – Наталья. Вместе с обеими дочерьми. Так океан впервые разделил братьев, каждый из них должен был теперь найти собственный путь.

Георгий стал главным редактором крупнейшего русскоязычного издания Америки – газеты "Новое русское слово", писал собственные романы и сценарии к фильмам. Аркадий написал роман "Нелюдь", а потом по нему сценарий к одному из первых российских независимых фильмов; занимался общественной деятельностью - входил в комиссию по помилованию при Президенте России.

До последних дней братья мечтали воплотить на экране продолжение знаменитого сериала "Место встречи изменить нельзя". Но сначала этому помешала смерть Высоцкого, а потом – когда появилась договоренность с голливудскими киностудиями – болезнь Георгия.

Аркадий Вайнер умер в 2005 году. Его брат Георгий – в июне 2009. В ноябре 2008 года Георгий успел дать нам свое последнее интервью.

В фильме использована никогда ранее не демонстрировавшаяся уникальная кино и фото хроника, видео из домашнего архива Вайнеров, а также письма Аркадия и Георгия Вайнеров.

Код:

Общее
Полное имя : D:\И не было лучше брата..._bySat.avi
Формат : AVI
Формат/Информация : Audio Video Interleave
Размер файла : 501 Мбайт
Продолжительность : 52 м.
Общий поток : 1345 Кбит/сек
Программа кодирования : VirtualDubMod 1.5.10.2 (build 2540/release)
Библиотека кодирования : VirtualDubMod build 2540/release

Видео
Идентификатор : 0
Формат : MPEG-4 Visual
Профиль формата : Advanced Simple@L5
Параметр BVOP формата : 1
Параметр QPel формата : Нет
Параметр GMC формата : Без точки перехода
Параметр матрицы формата : Default (H.263)
Идентификатор кодека : XVID
Идентификатор кодека/Подсказка : XviD
Продолжительность : 52 м.
Битрейт : 1207 Кбит/сек
Ширина : 704 пикселя
Высота : 416 пикселей
Соотношение сторон : 5:3
Частота кадров : 25,000 кадров/сек
Цветовое пространство : YUV
Субдискретизация насыщенности : 4:2:0
Битовая глубина : 8 бит
Тип развёртки : Прогрессивная
Метод сжатия : С потерями
Бит/(Пиксели*Кадры) : 0.165
Размер потока : 450 Мбайт (90%)
Библиотека кодирования : XviD 1.2.1 (UTC 2008-12-04)

Аудио
Идентификатор : 1
Формат : MPEG Audio
Версия формата : Version 1
Профиль формата : Layer 3
Идентификатор кодека : 55
Идентификатор кодека/Подсказка : MP3
Продолжительность : 52 м.
Вид битрейта : Постоянный
Битрейт : 128 Кбит/сек
Каналы : 2 канала
Частота : 48,0 КГц
Метод сжатия : С потерями
Размер потока : 47,7 Мбайт (10%)
Выравнивание : Соединение по промежуткам
Продолжительность промежутка : 40 мс. (1,00 видеокадр)
Время предзагрузки промежутка : 504 мс.
Библиотека кодирования : LAME3.98r
Настройки программы : -m s -V 4 -q 2 -lowpass 17 -b 128
picpicpicpicpic
Для увеличения картинки щелкните мышкой по превью

Этот торрент недоступен для скачивания без регистрации, однако доступен по публичной magnet-ссылке (источники с публичных трекеров). Перед использованием ссылки прочтите, пожалуйста Пользовательское соглашение, а также как можно дольше оставайтесь на раздаче! Для того, чтобы скачать сам торрент-файл (который видит больше источников), а также для того, чтобы поблагодарить релизера, вам необходимо зарегистрироваться. Если регистрироваться лень - вы можете также попробовать скачать релиз по нашим партнерским ссылкам ниже.

[underverse.su].t68246.torrent
Трекер: Зарегистрирован   [ 19.07.2016 18:18 ]  

Статус: проверено (by makkol at 19.07.2016 20:39)
Поблагодарили: пока никто не поблагодарил...
Тип торрента: публичный - доступные источники с открытых трекеров: 
Размер: 501 MB (занимает 0,11 DVDR, для записи нужно 1 болванка DVDR/RW)
 
 
Похожие темы
Форум Тема Автор Торрент Отв. Посл. сооб.
Наше кино [DVDRip, Low-Res HDRip, и т.д.] И не было лучше брата (Мурад Ибрагимбеков) [2011 г., драма, SatRip] RG NewCinema
1 | 0

1 | 724

6

21.10.2012 19:59


Яндекс.Метрика powered by Sphinx


В Н И М А Н И Е
Сайт не распространяет и не хранит электронные версии произведений, а лишь бесплатно и без коммерческой выгоды (не требуя взамен платы,
SMS и т.д.) предоставляет доступ к создаваемому пользователями каталогу ссылок на торрент-файлы, которые содержат только списки хеш-сумм.
Убедительная просьба с жалобами обращаться напрямую к пользователю, разместившему торрент файл.

Вверх