Loading...
Error

Сталин. Иногда они возвращаются / Stalin's Back (Роджер Сорк) [2009 г., документальный, история, аналитика, SatRip] DVO

Статистика раздачи
Размер:  324 MB   |    Зарегистрирован:  4 месяца 15 дней   |    Скачан:  3 раза

Полного источника не было: 3 месяца 17 дней

Сидов:  0  |  0 KB/s  ]   Личеров:  0  |  0 KB/s  ]

* - сиды/пиры с внешних источников

   
 
Автор Сообщение

ARI71 Пол:Муж

19-Июл-2016 17:21

Сталин. Иногда они возвращаются / Stalin's Back


Год выпуска: 2009
Жанр: документальный, история, аналитика
Страна: Великобритания BBC
Режиссер: Роджер Сорк
В ролях: Джон Суини
Сюжет фильма:
Авторы фильма проехали по сталинским местам бывшего СССР. Они побывали на родине вождя, в его бывшей сочинской резиденции, превращенной в отель «Сталин», а также посетили Соловки. Всем своим собеседникам, среди которых оказался журналист Владимир Познер, авторы ленты задавали вопрос: «Почему многие до сих пор оправдывают Сталина и симпатизируют ему, несмотря на очевидный кровавый след, который он оставил в истории?». Они хотят понять, что знают люди и как относятся к одному из самых жестоких диктаторов, тиранов и убийц 20 столетия?

Взгляд на такое понятие, как сталинизм, на российскую историю и на то, как сегодня относятся к Сталину на постсоветском пространстве.

Качество видео: SatRip

Продолжительность: 00:50:04
Формат: AVI
Видео: XviD, 720x480, ~768 kbps
Аудио: русский, двухголосый закадровый (профессиональный), MP3 2.0, ~123.00 kbps

Доп. информация: Фильм является совместным проектом ВВС, информационного агентства РИА Новости и департамента культуры Москвы.

Код:

Общее
Полное имя : D:\сталин_иногда_они_возвращаются_xvid.avi
Формат : AVI
Формат/Информация : Audio Video Interleave
Размер файла : 324 Мбайт
Продолжительность : 50 м.
Режим общего битрейта : Переменный
Общий поток : 904 Кбит/сек
Программа кодирования : MEncoder Sherpya-SVN-r32492-4.2.5
Библиотека кодирования : MPlayer

Видео
Идентификатор : 0
Формат : MPEG-4 Visual
Профиль формата : Simple@L3
Параметр BVOP формата : Нет
Параметр QPel формата : Нет
Параметр GMC формата : Без точки перехода
Параметр матрицы формата : Default (H.263)
Идентификатор кодека : XVID
Идентификатор кодека/Подсказка : XviD
Продолжительность : 50 м.
Битрейт : 768 Кбит/сек
Ширина : 720 пикселей
Высота : 480 пикселей
Соотношение сторон : 3:2
Соотношение сторон в оригинале : 3:2
Частота кадров : 25,000 кадров/сек
Цветовое пространство : YUV
Субдискретизация насыщенности : 4:2:0
Битовая глубина : 8 бит
Тип развёртки : Прогрессивная
Метод сжатия : С потерями
Бит/(Пиксели*Кадры) : 0.089
Размер потока : 275 Мбайт (85%)
Библиотека кодирования : XviD 1.2.1 (UTC 2008-12-04)

Аудио
Идентификатор : 1
Формат : MPEG Audio
Версия формата : Version 1
Профиль формата : Layer 3
Режим : Joint stereo
Расширение режима : MS Stereo
Идентификатор кодека : 55
Идентификатор кодека/Подсказка : MP3
Продолжительность : 50 м.
Вид битрейта : Переменный
Битрейт : 123 Кбит/сек
Каналы : 2 канала
Частота : 48,0 КГц
Метод сжатия : С потерями
Размер потока : 44,2 Мбайт (14%)
Выравнивание : Соединение по промежуткам
Продолжительность промежутка : 24 мс. (0,60 видеокадр)
Время предзагрузки промежутка : 501 мс.
picpicpicpicpic
Для увеличения картинки щелкните мышкой по превью

Этот торрент недоступен для скачивания без регистрации, однако доступен по публичной magnet-ссылке (источники с публичных трекеров). Перед использованием ссылки прочтите, пожалуйста Пользовательское соглашение, а также как можно дольше оставайтесь на раздаче! Для того, чтобы скачать сам торрент-файл (который видит больше источников), а также для того, чтобы поблагодарить релизера, вам необходимо зарегистрироваться. Если регистрироваться лень - вы можете также попробовать скачать релиз по нашим партнерским ссылкам ниже.

[underverse.su].t68245.torrent
Трекер: Зарегистрирован   [ 19.07.2016 17:21 ]  

Статус: проверено (by makkol at 19.07.2016 20:34)
Поблагодарили: пока никто не поблагодарил...
Тип торрента: публичный - доступные источники с открытых трекеров: 
Размер: 324 MB (занимает 0,07 DVDR, для записи нужно 1 болванка DVDR/RW)
 
 

Яндекс.Метрика powered by Sphinx


В Н И М А Н И Е
Сайт не распространяет и не хранит электронные версии произведений, а лишь бесплатно и без коммерческой выгоды (не требуя взамен платы,
SMS и т.д.) предоставляет доступ к создаваемому пользователями каталогу ссылок на торрент-файлы, которые содержат только списки хеш-сумм.
Убедительная просьба с жалобами обращаться напрямую к пользователю, разместившему торрент файл.

Вверх