Loading...
Error

Лайкни меня / Лайк за лайк / Johahaejyo / Like for Likes (Хён-чжин Пак) [2016 г., мелодрама, комедия, WEB-DLRip] DVO

Статистика раздачи
Размер:  1,41 GB   |    Зарегистрирован:  4 месяца 21 день   |    Скачан:  4 раза

Полного источника не было: 2 месяца 28 дней

Сидов:  0  |  0 KB/s  ]   Личеров:  0  |  0 KB/s  ]

* - сиды/пиры с внешних источников

   
 
Автор Сообщение

makkol Пол:Муж

19-Июл-2016 13:53

Лайкни меня / Лайк за лайк / Счастливый фейсбук
Johahaejyo / Like for Likes / Please Like Me / Happy Facebook


Год выпуска: 2016
Жанр: мелодрама, комедия
Производство: Корея Южная [Liyang Film]
Режиссер: Хён-чжин Пак
В ролях: Ю А-ин, Чхве Джи-у, Кан Ха-ныль, Ким Джу-хёк, Ли Ми-ён, Ли Джон-ын
Сюжет фильма:
В сюжете фильма тесно переплетены три истории любви и перед нами шесть характеров, очень разных, но их соединяет сама судьба, и как они ни сопротивляются ее воле, все равно приходится смириться. И, конечно, каждый из героев не выпускает из рук сотовых телефонов, с наличием интернета. В сети ведется переписка, размещаются фотографии и ставятся лайки. Но все это лишь фон реальной жизни, которая заставит зрителей улыбаться снова и снова.

  • Мировая премьера: 17 февраля 2016


Качество видео: WEB-DLRip

Продолжительность: 02:02:59
Формат: AVI
Видео: XviD, 720x304 (2.35:1), 23.976 fps, 1440 kbps
Аудио: русский, любительский двухголосый закадровый (Olyushka & Ruben Mendez), AC3 2.0, 48 kHz, 192 kbps

Код:

Формат : AVI
Формат/Информация : Audio Video Interleave
Размер файла : 1,41 Гбайт
Продолжительность : 2 ч. 2 м.
Общий поток : 1641 Кбит/сек
Программа кодирования : VirtualDubMod 1.5.10.3 | (build 2550/release)
Библиотека кодирования : VirtualDubMod build 2550/release

Видео
Идентификатор : 0
Формат : MPEG-4 Visual
Профиль формата : Advanced Simple@L5
Параметр BVOP формата : 1
Параметр QPel формата : Нет
Параметр GMC формата : Без точки перехода
Параметр матрицы формата : Default (H.263)
Идентификатор кодека : XVID
Идентификатор кодека/Подсказка : XviD
Продолжительность : 2 ч. 2 м.
Битрейт : 1440 Кбит/сек
Ширина : 720 пикселей
Высота : 304 пикселя
Соотношение сторон : 2,35:1
Частота кадров : 23,976 (23976/1000) кадра/сек
Цветовое пространство : YUV
Субдискретизация насыщенности : 4:2:0
Битовая глубина : 8 бит
Тип развёртки : Прогрессивная
Метод сжатия : С потерями
Бит/(Пиксели*Кадры) : 0.274
Размер потока : 1,24 Гбайт (88%)
Библиотека кодирования : XviD 1.2.1 (UTC 2008-12-04)

Аудио
Идентификатор : 1
Формат : AC-3
Формат/Информация : Audio Coding 3
Расширение режима : CM (complete main)
Параметр Endianness формата : Big
Идентификатор кодека : 2000
Продолжительность : 2 ч. 2 м.
Вид битрейта : Постоянный
Битрейт : 192 Кбит/сек
Каналы : 2 канала
Расположение каналов : Front: L R
Частота : 48,0 КГц
Частота кадров : 31,250 кадров/сек (1536 spf)
Метод сжатия : С потерями
Размер потока : 169 Мбайт (12%)
Выравнивание : Разделение по промежуткам
Продолжительность промежутка : 42 мс. (1,00 видеокадр)
Время предзагрузки промежутка : 500 мс.
picpicpicpicpic
Для увеличения картинки щелкните мышкой по превью

Этот торрент недоступен для скачивания без регистрации, однако доступен по публичной magnet-ссылке (источники с публичных трекеров). Перед использованием ссылки прочтите, пожалуйста Пользовательское соглашение, а также как можно дольше оставайтесь на раздаче! Для того, чтобы скачать сам торрент-файл (который видит больше источников), а также для того, чтобы поблагодарить релизера, вам необходимо зарегистрироваться. Если регистрироваться лень - вы можете также попробовать скачать релиз по нашим партнерским ссылкам ниже.

[underverse.su].t68241.torrent
Трекер: Зарегистрирован   [ 19.07.2016 13:53 ]  

Статус: проверено (by makkol at 23.07.2016 22:19)
Поблагодарили: пока никто не поблагодарил...
Тип торрента: публичный - доступные источники с открытых трекеров: 
Размер: 1,41 GB (занимает 0,32 DVDR, для записи нужно 1 болванка DVDR/RW)
 
 

Яндекс.Метрика powered by Sphinx


В Н И М А Н И Е
Сайт не распространяет и не хранит электронные версии произведений, а лишь бесплатно и без коммерческой выгоды (не требуя взамен платы,
SMS и т.д.) предоставляет доступ к создаваемому пользователями каталогу ссылок на торрент-файлы, которые содержат только списки хеш-сумм.
Убедительная просьба с жалобами обращаться напрямую к пользователю, разместившему торрент файл.

Вверх