Loading...
Error

Стеклянное дитя / Стеклянная кукла / Ребенок из стекла / Child of Glass (Джон Эрман) [1978 г., приключения, фэнтези, драма, семейный, DVDRip] AVO (А.Алексеев) + Original

Статистика раздачи
Размер:  1,37 GB   |    Зарегистрирован:  4 месяца 14 дней   |    Скачан:  2 раза

Полного источника не было: 2 часа 20 минут

Сидов:  0  |  0 KB/s  ]   Личеров:  0  |  0 KB/s  ]

* - сиды/пиры с внешних источников

   
 
Автор Сообщение

makkol Пол:Муж

19-Июл-2016 11:38

Стеклянное дитя / Стеклянная кукла / Ребенок из стекла / Child of Glass


Год выпуска: 1978
Жанр: приключения, фэнтези, драма, семейный
Производство: США [Walt Disney Productions]
Режиссер: Джон Эрман
В ролях: Барбара Барри, Бифф МакГуайр, Энтони Цербе, Нина Фош, Кэти Куртцман, Стив Шоу, Оливия Бэраш, Денис Никерсон, Джек Рейдер, Ирен Тедроу
Сюжет фильма:
Александр с семьей переезжает в Луизиану в жуткий старый особняк. Вскоре мальчик замечает рядом с домом девочку с собакой, которые оказываются призраками. Девочка говорит, что ее зовут Инес, и обращается к Александру за помощью - снять проклятье, которое на нее наложено…

  • Мировая премьера: 14 мая 1978


Качество видео: DVDRip

Продолжительность: 01:33:53
Формат: AVI
Видео: XviD, 640x480 (4:3), 29.970 fps, 1689 kbps
Аудио #1: русский, авторский одноголосый закадровый (Антон Алексеев), AC3 2.0, 48 kHz, 192 kbps
Аудио #2: английский, оригинал, AC3 2.0, 48 kHz, 192 kbps
Субтитры: английские внешние, SRT

Код:

Формат                                   : AVI
Формат/Информация                        : Audio Video Interleave
Размер файла                             : 1,37 Гбайт
Продолжительность                        : 1 ч. 33 м.
Общий поток                              : 2082 Кбит/сек
Программа кодирования                    : VirtualDubMod 1.5.4.1 (build 2178/release)
Библиотека кодирования                   : VirtualDubMod build 2178/release

Видео
Идентификатор                            : 0
Формат                                   : MPEG-4 Visual
Профиль формата                          : Advanced Simple@L5
Параметр BVOP формата                    : 1
Параметр QPel формата                    : Нет
Параметр GMC формата                     : Без точки перехода
Параметр матрицы формата                 : Выборочная
Идентификатор кодека                     : XVID
Идентификатор кодека/Подсказка           : XviD
Продолжительность                        : 1 ч. 33 м.
Битрейт                                  : 1689 Кбит/сек
Ширина                                   : 640 пикселей
Высота                                   : 480 пикселей
Соотношение сторон                       : 4:3
Частота кадров                           : 29,970 кадров/сек
Цветовое пространство                    : YUV
Субдискретизация насыщенности            : 4:2:0
Битовая глубина                          : 8 бит
Тип развёртки                            : Прогрессивная
Метод сжатия                             : С потерями
Бит/(Пиксели*Кадры)                      : 0.183
Размер потока                            : 1,11 Гбайт (81%)
Библиотека кодирования                   : XviD 1.2.1 (UTC 2008-12-04)

Аудио #1
Идентификатор                            : 1
Формат                                   : AC-3
Формат/Информация                        : Audio Coding 3
Расширение режима                        : CM (complete main)
Параметр Endianness формата              : Big
Идентификатор кодека                     : 2000
Продолжительность                        : 1 ч. 33 м.
Вид битрейта                             : Постоянный
Битрейт                                  : 192 Кбит/сек
Каналы                                   : 2 канала
Расположение каналов                     : Front: L R
Частота                                  : 48,0 КГц
Метод сжатия                             : С потерями
Размер потока                            : 129 Мбайт (9%)
Выравнивание                             : Разделение по промежуткам
Продолжительность промежутка             : 96  мс. (2,88 видеокадра)
Время предзагрузки промежутка            : 96  мс.
Язык                                     : Russian

Аудио #2
Идентификатор                            : 2
Формат                                   : AC-3
Формат/Информация                        : Audio Coding 3
Расширение режима                        : CM (complete main)
Параметр Endianness формата              : Big
Идентификатор кодека                     : 2000
Продолжительность                        : 1 ч. 33 м.
Вид битрейта                             : Постоянный
Битрейт                                  : 192 Кбит/сек
Каналы                                   : 2 канала
Расположение каналов                     : Front: L R
Частота                                  : 48,0 КГц
Метод сжатия                             : С потерями
Размер потока                            : 129 Мбайт (9%)
Выравнивание                             : Разделение по промежуткам
Продолжительность промежутка             : 96  мс. (2,88 видеокадра)
Время предзагрузки промежутка            : 96  мс.
Язык                                     : English
picpicpicpicpic
Для увеличения картинки щелкните мышкой по превью

Этот торрент недоступен для скачивания без регистрации, однако доступен по публичной magnet-ссылке (источники с публичных трекеров). Перед использованием ссылки прочтите, пожалуйста Пользовательское соглашение, а также как можно дольше оставайтесь на раздаче! Для того, чтобы скачать сам торрент-файл (который видит больше источников), а также для того, чтобы поблагодарить релизера, вам необходимо зарегистрироваться. Если регистрироваться лень - вы можете также попробовать скачать релиз по нашим партнерским ссылкам ниже.

[underverse.su].t68232.torrent
Трекер: Зарегистрирован   [ 19.07.2016 11:38 ]  

Статус: проверено (by makkol at 23.07.2016 22:00)
Поблагодарили: пока никто не поблагодарил...
Тип торрента: публичный - доступные источники с открытых трекеров: 
Размер: 1,37 GB (занимает 0,31 DVDR, для записи нужно 1 болванка DVDR/RW)
 
 

Яндекс.Метрика powered by Sphinx


В Н И М А Н И Е
Сайт не распространяет и не хранит электронные версии произведений, а лишь бесплатно и без коммерческой выгоды (не требуя взамен платы,
SMS и т.д.) предоставляет доступ к создаваемому пользователями каталогу ссылок на торрент-файлы, которые содержат только списки хеш-сумм.
Убедительная просьба с жалобами обращаться напрямую к пользователю, разместившему торрент файл.

Вверх