Loading...
Error

Городок полярных медведей / Polar Bear Town (1-12 серии из 12) / (Михаил Боднарчук) [2015 г., документальный, фауна, SatRip] VO

Статистика раздачи
Размер:  3,39 GB   |    Зарегистрирован:  4 месяца 21 день   |    Скачан:  0 раз

Полного источника не было: 4 месяца 19 дней

Сидов:  0  |  0 KB/s  ]   Личеров:  0  |  0 KB/s  ]

* - сиды/пиры с внешних источников

   
 
Автор Сообщение

ARI71 Пол:Муж

18-Июл-2016 14:21

Городок полярных медведей / Polar Bear Town (1-12 серии из 12)


Год выпуска: 2015
Жанр: документальный, фауна
Страна: Канада Merit Motion Pictures
Режиссер: Михаил Боднарчук
В ролях: Келси Элиассон, Деннис Компайр, Брайан Ладун
Сюжет фильма:
Каждую осень миграционный путь тысячи оголодавших белых медведей проходит через пограничный город Черчилл в Манитобе. Число его жителей вырастает с 800 до 10000, когда туда устремляются люди, мечтающие увидеть этих животных. Келси Элиассон, вооруженный одной ракетницей, сопровождает клиентов среди величественных медведей. Движимый страстью к приключениям, он отваживается приближаться к ним вплотную, стремясь защитить как людей, так и животных. Его друг и наставник Деннис Компайр отлично ладит с медведями и местными жителями. Бывший хиппи Брайан Ладун хоть и не является проводником, но тоже не сидит без дела: его свора эскимосских собак привлекает любопытных медведей и туристов.
Качество видео: SatRip

Продолжительность: 12 х ~ 00:24:20
Формат: AVI
Видео: XviD, 720x400, ~1497 kbps
Аудио: русский, одноголосый (профессиональный), MP3 2.0, ~160.00 kbps
(тех. данные всех серий идентичны)

Код:

Общее
Полное имя : D:\Gorod.polyarnih.medvedey.2015.SatRip\01seriya.avi
Формат : AVI
Формат/Информация : Audio Video Interleave
Размер файла : 296 Мбайт
Продолжительность : 24 м.
Общий поток : 1667 Кбит/сек

Видео
Идентификатор : 0
Формат : MPEG-4 Visual
Профиль формата : Advanced Simple@L4
Параметр BVOP формата : Нет
Параметр QPel формата : Нет
Параметр GMC формата : Без точки перехода
Параметр матрицы формата : Default (H.263)
Идентификатор кодека : XVID
Идентификатор кодека/Подсказка : XviD
Продолжительность : 24 м.
Битрейт : 1497 Кбит/сек
Ширина : 720 пикселей
Высота : 400 пикселей
Соотношение сторон : 16:9
Частота кадров : 25,000 кадров/сек
Цветовое пространство : YUV
Субдискретизация насыщенности : 4:2:0
Битовая глубина : 8 бит
Тип развёртки : Прогрессивная
Метод сжатия : С потерями
Бит/(Пиксели*Кадры) : 0.208
Размер потока : 266 Мбайт (90%)

Аудио
Идентификатор : 1
Формат : MPEG Audio
Версия формата : Version 1
Профиль формата : Layer 3
Идентификатор кодека : 55
Идентификатор кодека/Подсказка : MP3
Продолжительность : 24 м.
Вид битрейта : Постоянный
Битрейт : 160 Кбит/сек
Каналы : 2 канала
Частота : 48,0 КГц
Метод сжатия : С потерями
Размер потока : 28,5 Мбайт (10%)
Выравнивание : Соединение по промежуткам
Продолжительность промежутка : 40 мс. (1,00 видеокадр)
1-я серия - "Испытания"
После нападения медведя в Черчилле Деннис спешит показать важному клиенту медведей до прибытия
службы охраны природы, а Келси пытается защитить ретивого фотографа от детеныша и его агрессивной матери.

2-я серия - "Новый проводник"
Деннис обучает беспокойного проводника самому необходимому, а Брайан пытается обезопасить от медведей
свою придорожную достопримечательность.

3-я серия - "Моя охрана"
Келси доверяет свою жизнь новому проводнику, чтобы внести свой вклад в важный проект, а Деннис приходит на
помощь, когда новый охранник Брайана получает важный урок.

4-я серия - "Вверх по течению"
Деннис сопровождает фотографа-натуралиста к месту обитания белых медведей, но их прогулка превращается в
спасательную операцию, когда они обнаруживают следы осиротевшего детеныша.

5-я серия - "Медвежья терапия"
Келси сопровождает клиента, ставшего жертвой нападения полярного медведя, на опасную встречу,
а предприятие Брайана становится весьма рискованным после прибытия японской съемочной группы.

6-я серия - "Уловка или ловушка"
В Черчилле празднуют Хэллоуин, и весь город участвует в патрулировании, чтобы дети могли без опаски находиться на улице.

7-я серия - "Медведи в воздухе"
Келси использует переброску по воздуху, чтобы освободить мать и детеныша. Деннис организует экспедицию
к месту крушения поезда, груз зерна из которого привлек стаю голодных медведей.

8-я серия - "Пир во время чумы"
Для того чтобы добыть денег на прокорм своих эскимосских собак, не привлекая внимания службы охраны природы,
Брайан устраивает день открытых дверей в своем заведении.

9-я серия - "Волки на пороге"
После жестокого нападения волков Брайан спешит перевести своих эскимосских собак в безопасное место.
Деннис сопровождает группу легко одетых музыкантов из Флориды по снегам среди белых медведей.

10-я серия - "Идеальный шторм"
Деннис и его клиент оказываются в глазу бури, которая может заморозить залив и заставить белых медведей
переместиться. Келси вместе с клиентом следит, как самец преследует мать и детеныша.

11-я серия - "Последний танец"
Гудзонов залив замерзает и белые медведи готовятся покинуть Черчилл. Деннис заручается помощью
Келси и опытного летчика Эла, чтобы отыскать медведя, сыгравшего решающую роль в его карьере проводника

12-я серия - "Поиски медвежонка"
Для того чтобы улучшить положение дел, Деннис затевает грандиозную экспедицию к местам зимовки.
Келси становится свидетелем того, как юные медвежата впервые выходят из своего логова
picpicpicpicpic
Для увеличения картинки щелкните мышкой по превью

Этот торрент недоступен для скачивания без регистрации, однако доступен по публичной magnet-ссылке (источники с публичных трекеров). Перед использованием ссылки прочтите, пожалуйста Пользовательское соглашение, а также как можно дольше оставайтесь на раздаче! Для того, чтобы скачать сам торрент-файл (который видит больше источников), а также для того, чтобы поблагодарить релизера, вам необходимо зарегистрироваться. Если регистрироваться лень - вы можете также попробовать скачать релиз по нашим партнерским ссылкам ниже.

[underverse.su].t68182.torrent
Трекер: Зарегистрирован   [ 18.07.2016 14:21 ]  

Статус: проверено (by makkol at 18.07.2016 15:26)
Поблагодарили: пока никто не поблагодарил...
Тип торрента: публичный - доступные источники с открытых трекеров: 
Размер: 3,39 GB (занимает 0,77 DVDR, для записи нужно 1 болванка DVDR/RW)
 
 

Яндекс.Метрика powered by Sphinx


В Н И М А Н И Е
Сайт не распространяет и не хранит электронные версии произведений, а лишь бесплатно и без коммерческой выгоды (не требуя взамен платы,
SMS и т.д.) предоставляет доступ к создаваемому пользователями каталогу ссылок на торрент-файлы, которые содержат только списки хеш-сумм.
Убедительная просьба с жалобами обращаться напрямую к пользователю, разместившему торрент файл.

Вверх