Loading...
Error

Незваные гости / Shut In / Intruders (Адам Шиндлер) [2015 г., ужасы, триллер, драма, BDRip] Dub (iTunes)

Статистика раздачи
Размер:  1,42 GB   |    Зарегистрирован:  4 месяца 19 дней   |    Скачан:  7 раз

Полного источника не было: 22 дня

Сидов:  0  |  0 KB/s  ]   Личеров:  0  |  0 KB/s  ]

* - сиды/пиры с внешних источников

   
 
Автор Сообщение

makkol Пол:Муж

16-Июл-2016 21:40

Незваные гости / Shut In / Intruders


Год выпуска: 2015
Жанр: ужасы, триллер, драма
Прогизводство: США [Black Fish Films, Campbell Grobman Films, Jeff Rice Films, Vicarious Entertainment]
Режиссер: Адам Шиндлер
В ролях: Рори Калкин, Летисия Хименез, Джек Кеси, Тимоти Т. МакКинни, Джошуа Микель, Бэт Рисграф, Мартин Старр
Сюжет фильма:
Анна страдает от агорафобии, поэтому, когда трое преступников врываются в ее дом, она не может заставить себя выбежать на улицу. Злоумышленники пока не знают, что боязнь открытого пространства — не единственное расстройство психики девушки.

  • Мировая премьера: 12 июня 2015
  • Российская премьера: 17 марта 2016


Качество видео: BDRip [исх. Shut.In.2015.1080i.BluRay.REMUX.AVC.DTS-HD.MA.5.1]

Продолжительность: 01:26:22
Формат: AVI
Видео: XviD, 720x304 (2.35:1), 25.000 fps, 1965 kbps
Аудио: русский, дублированный (iTunes), AC3 5.1, 48 kHz, 384 kbps

Код:

Format : AVI
Format/Info : Audio Video Interleave
File size : 1.42 GiB
Duration : 1h 26mn
Overall bit rate : 2 358 Kbps
Genre : Horror/Thriller/Drama
Writing application : VirtualDubMod 1.5.10.2 (build 2540/release)
Writing library : VirtualDubMod build 2540/release
Original source form/Name : Movie

Video
ID : 0
Format : MPEG-4 Visual
Format profile : Advanced Simple@L5
Format settings, BVOP : 2
Format settings, QPel : No
Format settings, GMC : No warppoints
Format settings, Matrix : Custom
Codec ID : XVID
Codec ID/Hint : XviD
Duration : 1h 26mn
Bit rate : 1 965 Kbps
Width : 720 pixels
Height : 304 pixels
Display aspect ratio : 2.35:1
Frame rate : 25.000 fps
Color space : YUV
Chroma subsampling : 4:2:0
Bit depth : 8 bits
Scan type : Progressive
Compression mode : Lossy
Bits/(Pixel*Frame) : 0.359
Stream size : 1.19 GiB (83%)
Writing library : XviD 73

Audio
ID : 1
Format : AC-3
Format/Info : Audio Coding 3
Mode extension : CM (complete main)
Format settings, Endianness : Big
Codec ID : 2000
Duration : 1h 26mn
Bit rate mode : Constant
Bit rate : 384 Kbps
Channel(s) : 6 channels
Channel positions : Front: L C R, Side: L R, LFE
Sampling rate : 48.0 KHz
Bit depth : 16 bits
Compression mode : Lossy
Stream size : 237 MiB (16%)
Alignment : Split accross interleaves
Interleave, duration : 40 ms (1.00 video frame)
Interleave, preload duration : 500 ms
Релиз:
Релиз без рекламы


picpicpicpicpic
Для увеличения картинки щелкните мышкой по превью

Этот торрент недоступен для скачивания без регистрации, однако доступен по публичной magnet-ссылке (источники с публичных трекеров). Перед использованием ссылки прочтите, пожалуйста Пользовательское соглашение, а также как можно дольше оставайтесь на раздаче! Для того, чтобы скачать сам торрент-файл (который видит больше источников), а также для того, чтобы поблагодарить релизера, вам необходимо зарегистрироваться. Если регистрироваться лень - вы можете также попробовать скачать релиз по нашим партнерским ссылкам ниже.

[underverse.su].t68149.torrent
Трекер: Зарегистрирован   [ 16.07.2016 21:40 ]  

Статус: T временная (by makkol at 19.07.2016 14:56)
Поблагодарили: пока никто не поблагодарил...
Тип торрента: публичный - доступные источники с открытых трекеров: 
Размер: 1,42 GB (занимает 0,33 DVDR, для записи нужно 1 болванка DVDR/RW)
 
 
Похожие темы
Форум Тема Автор Торрент Отв. Посл. сооб.
Зарубежное кино [DVDRip, Low-Res HDRip, и т.д.] Незваные гости / Shut In (Адам Шиндлер / Adam Schindler) [2015 г., ужасы, триллер, драма, HDRip] [Uncorked Edition] Dub/MVO 90ytr90
24 | 0

0 | 206

2

18.11.2016 17:57

T Зарубежное кино [DVDRip, Low-Res HDRip, и т.д.] Незваные гости / Shut In (Адам Шиндлер / Adam Schindler) [2015 г., ужасы, триллер, драма, BDRip-AVC] Dub (iTunes) + Original (Eng) + Sub (Eng) 90ytr90
365 | 8

0 | 255

4

12.11.2016 14:21

T Зарубежное кино [DVDRip, Low-Res HDRip, и т.д.] Незваные гости / Shut In (Адам Шиндлер / Adam Schindler) [2015 г., ужасы, триллер, драма, HDRip] Dub (iTunes) 90ytr90
4 | 3

0 | 226

0

12.11.2016 14:17

Зарубежное кино [DVDRip, Low-Res HDRip, и т.д.] Незваные гости / Оккупанты / The Occupants (Тодд Элкотт) [2014 г., триллер, HDRip] VO Паукан
1 | 0

0 | 1160

18

29.05.2014 06:37

Зарубежное кино [DVDRip, Low-Res HDRip, и т.д.] Незваные гости / Shut In (Адам Шиндлер / Adam Schindler) [2015 г., ужасы, триллер, драма, BDRip] DVO (Parovoz Production) + Original (Eng) 90ytr90
16 | 3

0 | 507

8

04.03.2016 14:20

Зарубежное кино [HDDVDRip / BDRip / WEB-DL / HDTV 1080/720р] Незваные гости / Shut In (Адам Шиндлер / Adam Schindler) [2015 г., ужасы, триллер, драма, BDRip 720p] [Uncorked Edition] Dub/MVO + DVO (Tycoon-studio) + Original (Eng) + Sub (Rus) 90ytr90
12 | 0

0 | 203

3

18.11.2016 18:02

Зарубежное кино [HDDVDRip / BDRip / WEB-DL / HDTV 1080/720р] Незваные гости / Shut In / Intruders (Адам Шиндлер) [2015 г., ужасы, триллер, драма, WEB-DL 720p] DVO + Original makkol
1 | 0

0 | 424

13

01.02.2016 10:57

Зарубежное кино [HDDVDRip / BDRip / WEB-DL / HDTV 1080/720р] Незваные гости / Shut In (Адам Шиндлер / Adam Schindler) [2015 г., ужасы, триллер, драма, WEB-DL 720p] DVO (Parovoz Production) + Original (Eng) + Sub (Eng) 90ytr90
31 | 1

0 | 536

13

01.02.2016 19:54

T Зарубежное кино [HDDVDRip / BDRip / WEB-DL / HDTV 1080/720р] Незваные гости / Shut In / Intruders (Адам Шиндлер) [2015 г., ужасы, триллер, драма, BDRip 720p] Dub (iTunes) + Original makkol
62 | 8

0 | 346

4

16.07.2016 21:48

T Зарубежное кино [HDDVDRip / BDRip / WEB-DL / HDTV 1080/720р] Незваные гости / Shut In / Intruders (Адам Шиндлер) [2015 г., ужасы, триллер, драма, BDRip 1080p] Dub (iTunes) + Original makkol
29 | 3

0 | 351

4

16.07.2016 21:56


Яндекс.Метрика powered by Sphinx


В Н И М А Н И Е
Сайт не распространяет и не хранит электронные версии произведений, а лишь бесплатно и без коммерческой выгоды (не требуя взамен платы,
SMS и т.д.) предоставляет доступ к создаваемому пользователями каталогу ссылок на торрент-файлы, которые содержат только списки хеш-сумм.
Убедительная просьба с жалобами обращаться напрямую к пользователю, разместившему торрент файл.

Вверх