Loading...
Error

Мы с дедушкой (Александр Кулямин) [2014 г., драма, семейный, WEBRip]

Статистика раздачи
Размер:  593 MB   |    Зарегистрирован:  4 месяца 17 дней   |    Скачан:  10 раз

Полного источника не было: 32 минуты

Сидов:  0  |  0 KB/s  ]   Личеров:  0  |  0 KB/s  ]

* - сиды/пиры с внешних источников

   
 
Автор Сообщение

makkol Пол:Муж

16-Июл-2016 14:53

Мы с дедушкой


Год выпуска: 2014
Жанр: драма, семейный
Производство: Россия [Ленкино, Леда-фильм]
Режиссер: Александр Кулямин
В ролях: Юрий Назаров, Тимофей Разуваев, Алексей Тихонов, Екатерина Альбрандт, Людмила Мальцева, Ольга Воронцова, Галина Чурилина, Олег Иванов
Сюжет фильма:
Картина рассказывает о мальчике, который всю жизнь прожил в городе и о деревне имеет смутные представления. Но однажды его отправят на каникулы к дедушке. Будут ссоры, непонимание, и только случай, который чуть не стоил деду жизни, всё изменит.

Качество видео: WEBRip

Продолжительность: 01:33:36
Формат: MKV
Видео: MPEG-4 AVC, 854x480 (16:9), 25.000 fps, 740 kbps
Аудио: русский, оригинал, AC3 2.0, 44.1 kHz, 128 kbps

Код:

Формат                                   : Matroska
Версия формата                           : Version 4 / Version 2
Размер файла                             : 593 Мбайт
Продолжительность                        : 1 ч. 33 м.
Общий поток                              : 886 Кбит/сек
Дата кодирования                         : UTC 2016-07-16 12:34:54
Программа кодирования                    : mkvmerge v7.9.0 ('Birds') 64bit
Библиотека кодирования                   : libebml v1.3.1 + libmatroska v1.4.2

Видео
Идентификатор                            : 1
Формат                                   : AVC
Формат/Информация                        : Advanced Video Codec
Профиль формата                          : Main@L3
Параметр CABAC формата                   : Да
Параметр ReFrames формата                : 3 кадра
Идентификатор кодека                     : V_MPEG4/ISO/AVC
Продолжительность                        : 1 ч. 33 м.
Битрейт                                  : 740 Кбит/сек
Ширина                                   : 854 пикселя
Высота                                   : 480 пикселей
Соотношение сторон                       : 16:9
Режим частоты кадров                     : Постоянный
Частота кадров                           : 25,000 кадров/сек
Цветовое пространство                    : YUV
Субдискретизация насыщенности            : 4:2:0
Битовая глубина                          : 8 бит
Тип развёртки                            : Прогрессивная
Бит/(Пиксели*Кадры)                      : 0.072
Размер потока                            : 496 Мбайт (84%)
Default                                  : Да
Forced                                   : Нет

Аудио
Идентификатор                            : 2
Формат                                   : AC-3
Формат/Информация                        : Audio Coding 3
Расширение режима                        : CM (complete main)
Параметр Endianness формата              : Big
Идентификатор кодека                     : A_AC3
Продолжительность                        : 1 ч. 33 м.
Вид битрейта                             : Постоянный
Битрейт                                  : 128 Кбит/сек
Каналы                                   : 2 канала
Расположение каналов                     : Front: L R
Частота                                  : 44,1 КГц
Метод сжатия                             : С потерями
Размер потока                            : 85,7 Мбайт (14%)
Язык                                     : Russian
Default                                  : Да
Forced                                   : Нет
picpicpicpicpic
Для увеличения картинки щелкните мышкой по превью

Этот торрент недоступен для скачивания без регистрации, однако доступен по публичной magnet-ссылке (источники с публичных трекеров). Перед использованием ссылки прочтите, пожалуйста Пользовательское соглашение, а также как можно дольше оставайтесь на раздаче! Для того, чтобы скачать сам торрент-файл (который видит больше источников), а также для того, чтобы поблагодарить релизера, вам необходимо зарегистрироваться. Если регистрироваться лень - вы можете также попробовать скачать релиз по нашим партнерским ссылкам ниже.

[underverse.su].t68147.torrent
Трекер: Зарегистрирован   [ 16.07.2016 14:53 ]  

Статус: проверено (by makkol at 19.07.2016 14:55)
Поблагодарили: пока никто не поблагодарил...
Тип торрента: публичный - доступные источники с открытых трекеров: 
Размер: 593 MB (занимает 0,13 DVDR, для записи нужно 1 болванка DVDR/RW)
 
 

Яндекс.Метрика powered by Sphinx


В Н И М А Н И Е
Сайт не распространяет и не хранит электронные версии произведений, а лишь бесплатно и без коммерческой выгоды (не требуя взамен платы,
SMS и т.д.) предоставляет доступ к создаваемому пользователями каталогу ссылок на торрент-файлы, которые содержат только списки хеш-сумм.
Убедительная просьба с жалобами обращаться напрямую к пользователю, разместившему торрент файл.

Вверх