Loading...
Error

Сила воли / Race (Стивен Хопкинс) [2016 г., драма, биография, спорт, HDRip] MVO

Статистика раздачи
Размер:  2,05 GB   |    Зарегистрирован:  4 месяца 25 дней   |    Скачан:  9 раз
Сидов:  1  |  85 KB/s  ]   Личеров:  0  |  0 KB/s  ]

* - сиды/пиры с внешних источников

   
 
Автор Сообщение

makkol Пол:Муж

16-Июл-2016 13:05

Сила воли / Race


Год выпуска: 2016
Жанр: драма, биография, спорт
Производство: Канада , Германия [Forecast Pictures, JoBro Productions & Film Finance]
Режиссер: Стивен Хопкинс
В ролях: Стэфан Джеймс, Джейсон Судейкис, Эли Гори, Шанис Бэнтон, Кэрис ван Хаутен, Джереми Айронс, Уильям Хёрт, Давид Кросс, Джонатан Хиггинс, Тони Кёрран
Сюжет фильма:
Правдивая история легендарного чернокожего атлета Джесси Оуэнса, чье невероятное упорство привело его на Олимпийские игры 1936 года в нацистском Берлине. Встретившиеся на его пути преграды и искушения - ничто в сравнении с грандиозным забегом, за которым следил весь мир. Затаив дыхание, одни надеялись на победу Джесси как на символ справедливости и достоинства, а другие жаждали его поражения во имя триумфа идеологии. Несколько секунд - и Джесси ворвался в историю, бросив дерзкий вызов самому Гитлеру.

  • Мировая премьера: 11 февраля 2016
  • Российская премьера: 14 июля 2016


Качество видео: HDRip

Продолжительность: 02:13:51
Формат: AVI
Видео: XviD, 720x304 (2.35:1), 23.976 fps, 1805 kbps
Аудио: русский, любительский многоголосый закадровый (Parovoz Production), AC3 2.0, 48 kHz, 384 kbps

Код:

Формат : AVI
Формат/Info : Audio Video Interleave
Формат profile : OpenDML
Размер файла : 2.05 GiB
Длительность : 2h 13mn
Общий Битрейт : 2 196 Kbps
Создано приложением : VirtualDubMod 1.5.10.2 (build 2540/release)
Writing library : VirtualDubMod build 2540/release

Video
ID : 0
Формат : MPEG-4 Visual
Формат profile : Advanced Simple@L5
Формат настройки, BVOP : 2
Формат настройки, QPel : No
Формат настройки, GMC : No warppoints
Формат настройки, Matrix : Custom
Кодек ID : XVID
Кодек ID/Hint : XviD
Длительность : 2h 13mn
Битрейт : 1 805 Kbps
Width : 720 пикселей
Высота : 304 пикселей
Соотношение кадра : 2.35:1
Частота кадров : 23.976 fps
Цветопередача : YUV
Chroma subsampling : 4:2:0
Разрядность : 8 bits
Тип сканирования : Progressive
Режим сжатия : Lossy
Bits/(Pixel*Frame) : 0.343
Размер потока : 1.68 GiB (82%)
Writing library : XviD 1.2.1 (UTC 2008-12-04)

Audio
ID : 1
Формат : AC-3
Формат/Info : Audio Coding 3
Расширение режима : CM (complete main)
Формат настройки, Endianness : Big
Кодек ID : 2000
Длительность : 2h 13mn
Битрейт mode : Constant
Битрейт : 384 Kbps
Channel count : 2 канала
Channel positions : Front: L R
Частота : 48.0 KHz
Разрядность : 16 bits
Режим сжатия : Lossy
Размер потока : 368 MiB (17%)
Выравнивание : Split accross interleaves
Interleave, Длительность : 42 ms (1.00 video frame)
Interleave, preload Длительность : 500 ms
Присутствует реклама


picpicpicpicpic
Для увеличения картинки щелкните мышкой по превью

Этот торрент недоступен для скачивания без регистрации, однако доступен по публичной magnet-ссылке (источники с публичных трекеров). Перед использованием ссылки прочтите, пожалуйста Пользовательское соглашение, а также как можно дольше оставайтесь на раздаче! Для того, чтобы скачать сам торрент-файл (который видит больше источников), а также для того, чтобы поблагодарить релизера, вам необходимо зарегистрироваться. Если регистрироваться лень - вы можете также попробовать скачать релиз по нашим партнерским ссылкам ниже.

[underverse.su].t68132.torrent
Трекер: Зарегистрирован   [ 16.07.2016 13:05 ]  

Статус: проверено (by makkol at 19.07.2016 14:53)
Поблагодарили: пока никто не поблагодарил...
Тип торрента: публичный - доступные источники с открытых трекеров: 
Размер: 2,05 GB (занимает 0,47 DVDR, для записи нужно 1 болванка DVDR/RW)
 
 
Похожие темы
Форум Тема Автор Торрент Отв. Посл. сооб.
Зарубежное кино [DVDRip, Low-Res HDRip, и т.д.] Сила воли / Race (Стивен Хопкинс / Stephen Hopkins) [2016 г., драма, биография, спорт, HDRip] AVO (Есарев) 90ytr90
8 | 0

0 | 614

1

23.10.2016 12:30

T Зарубежное кино [DVDRip, Low-Res HDRip, и т.д.] Сила воли / Race (Стивен Хопкинс / Stephen Hopkins) [2016 г., драма, биография, спорт, HDRip] Dub (iTunes) 90ytr90
50 | 0

0 | 602

1

23.10.2016 12:26

Зарубежное кино [DVDRip, Low-Res HDRip, и т.д.] Сила воли / Race (Стивен Хопкинс) [2016 г., драма, биография, спорт, HDRip] MVO makkol
35 | 3

0 | 249

9

16.07.2016 12:51

Зарубежное кино [DVDRip, Low-Res HDRip, и т.д.] Сила воли / Race (Стивен Хопкинс / Stephen Hopkins) [2016 г., драма, биография, спорт, HDRip] AVO (Есарев) 90ytr90
16 | 2

0 | 387

5

15.08.2016 18:03

T Зарубежное кино [DVDRip, Low-Res HDRip, и т.д.] Сила воли / Race (Стивен Хопкинс / Stephen Hopkins) [2016 г., драма, биография, спорт, HDRip] Dub (iTunes) 90ytr90
755 | 14

0 | 692

7

21.08.2016 19:09

Зарубежное кино [HDDVDRip / BDRip / WEB-DL / HDTV 1080/720р] Сила воли / Race (Стивен Хопкинс) [2016 г., драма, биография, спорт, BDRip 720p] MVO makkol
18 | 3

0 | 261

9

16.07.2016 13:16

Зарубежное кино [HDDVDRip / BDRip / WEB-DL / HDTV 1080/720р] Сила воли / Race (Стивен Хопкинс) [2016 г., драма, биография, спорт, BDRip 1080p] MVO makkol
64 | 7

0 | 294

13

16.07.2016 13:22

T Зарубежное кино [HDDVDRip / BDRip / WEB-DL / HDTV 1080/720р] Сила воли / Race (Стивен Хопкинс / Stephen Hopkins) [2016 г., драма, биография, спорт, BDRip 720p] Dub (звук с TS) 90ytr90
3 | 0

0 | 260

2

10.08.2016 11:20

T Зарубежное кино [HDDVDRip / BDRip / WEB-DL / HDTV 1080/720р] Сила воли / Race (Стивен Хопкинс / Stephen Hopkins) [2016 г., драма, биография, спорт, BDRip 1080p] Dub (звук с TS) 90ytr90
35 | 5

0 | 244

1

10.08.2016 11:24

Зарубежное кино [HDDVDRip / BDRip / WEB-DL / HDTV 1080/720р] Сила воли / Race (Стивен Хопкинс / Stephen Hopkins) [2016 г., драма, биография, спорт, BDRip 1080p] AVO (Есарев) + Original (Eng) 90ytr90
6 | 0

0 | 352

2

15.08.2016 18:10


Яндекс.Метрика powered by Sphinx


В Н И М А Н И Е
Сайт не распространяет и не хранит электронные версии произведений, а лишь бесплатно и без коммерческой выгоды (не требуя взамен платы,
SMS и т.д.) предоставляет доступ к создаваемому пользователями каталогу ссылок на торрент-файлы, которые содержат только списки хеш-сумм.
Убедительная просьба с жалобами обращаться напрямую к пользователю, разместившему торрент файл.

Вверх