Loading...
Error

По железным дорогам бывшей империи / On the Rails of the Double Headed Eagle (1-2 серия из 2) / (Берн Колз, Жернот Стадле) [2014 г., документальный, история, путешествия, HDTVRip 720p] Dub + Original (Eng)

Статистика раздачи
Размер:  2,9 GB   |    Зарегистрирован:  4 месяца 20 дней   |    Скачан:  1 раз

Полного источника не было: 2 месяца 26 дней

Сидов:  0  |  0 KB/s  ]   Личеров:  0  |  0 KB/s  ]

* - сиды/пиры с внешних источников

   
 
Автор Сообщение

ARI71 Пол:Муж

16-Июл-2016 11:16

По железным дорогам бывшей империи / On the Rails of the Double Headed Eagle (1-2 серия из 2)


Год выпуска: 2014
Жанр: документальный, история, путешествия
Страна: Австрия ORF/3sat and Gernot Stadler Filmproduktion in association with the Austrian Television Fund, Land Kärnten
Перевод: русский, (дублированный)
Режиссер: Берн Колз, Жернот Стадле
Сюжет фильма:
Фильм рассказывает о возникновении и развитии монументальной австро-венгерской железной дороги, которая была построена, чтобы соединить степи Галиции и побережье Адриатического моря. Большое значение придается важности железной дороги с точки зрения стратегии, особенно во время войны. Мы отправимся в путешествие по многочисленным деревням и городам, которые когда-то были частью могущественной Австро-Венгерской империи.
Качество видео: HDTVRip 720p

Продолжительность: 2 x ~00:51:54
Формат: MKV
Видео: AVC (x264), 1280x720 (16:9), 25 fps, High@L4.1, ~3750 kbps, 0.163 bit/pixel
Аудио #1: русский, 48 kHz, MPEG Layer 2, 2 ch, ~128.00 kbps avg
Аудио #2: английский, 48 kHz, MPEG Layer 2, 2 ch, ~128.00 kbps avg
(технические данные всех серий идентичны)

Код:

Общее
Уникальный идентификатор : 250098822283244720850327960713179266770 (0xBC2747F575052CFB99CFB6FB495D7ED2)
Полное имя : D:\По железным дорогам бывшей империи\По железным дорогам бывшей империи 1_720p.mkv
Формат : Matroska
Версия формата : Version 4 / Version 2
Размер файла : 1,45 Гбайт
Продолжительность : 51 м.
Общий поток : 4008 Кбит/сек
Дата кодирования : UTC 2016-07-16 03:41:38
Программа кодирования : mkvmerge v8.9.0 ('Father Daughter') 64bit
Библиотека кодирования : libebml v1.3.3 + libmatroska v1.4.4

Видео
Идентификатор : 1
Формат : AVC
Формат/Информация : Advanced Video Codec
Профиль формата : High@L4.1
Параметр CABAC формата : Да
Параметр ReFrames формата : 8 кадров
Идентификатор кодека : V_MPEG4/ISO/AVC
Продолжительность : 51 м.
Битрейт : 3750 Кбит/сек
Ширина : 1280 пикселей
Высота : 720 пикселей
Соотношение сторон : 16:9
Режим частоты кадров : Постоянный
Частота кадров : 25,000 кадров/сек
Цветовое пространство : YUV
Субдискретизация насыщенности : 4:2:0
Битовая глубина : 8 бит
Тип развёртки : Прогрессивная
Бит/(Пиксели*Кадры) : 0.163
Размер потока : 1,36 Гбайт (94%)
Библиотека кодирования : x264 core 148 r2638 7599210
Настройки программы : cabac=1 / ref=8 / deblock=1:-3:-3 / analyse=0x3:0x133 / me=umh / subme=11 / psy=1 / psy_rd=1.00:0.00 / mixed_ref=1 / me_range=32 / chroma_me=1 / trellis=2 / 8x8dct=1 / cqm=0 / deadzone=21,11 / fast_pskip=1 / chroma_qp_offset=-2 / threads=12 / lookahead_threads=2 / sliced_threads=0 / nr=0 / decimate=0 / interlaced=0 / bluray_compat=0 / constrained_intra=0 / bframes=8 / b_pyramid=2 / b_adapt=2 / b_bias=0 / direct=3 / weightb=1 / open_gop=0 / weightp=2 / keyint=250 / keyint_min=25 / scenecut=40 / intra_refresh=0 / rc_lookahead=50 / rc=2pass / mbtree=1 / bitrate=3750 / ratetol=1.0 / qcomp=0.60 / qpmin=0 / qpmax=69 / qpstep=4 / cplxblur=20.0 / qblur=0.5 / ip_ratio=1.40 / aq=1:1.00
Язык : English
Default : Да
Forced : Нет

Аудио #1
Идентификатор : 2
Формат : MPEG Audio
Версия формата : Version 1
Профиль формата : Layer 2
Идентификатор кодека : A_MPEG/L2
Идентификатор кодека/Подсказка : MP2
Продолжительность : 51 м.
Вид битрейта : Постоянный
Битрейт : 128 Кбит/сек
Каналы : 2 канала
Частота : 48,0 КГц
Частота кадров : 41,667 кадра/сек (1152 spf)
Метод сжатия : С потерями
Размер потока : 47,5 Мбайт (3%)
Язык : Russian
Default : Да
Forced : Нет

Аудио #2
Идентификатор : 3
Формат : MPEG Audio
Версия формата : Version 1
Профиль формата : Layer 2
Идентификатор кодека : A_MPEG/L2
Идентификатор кодека/Подсказка : MP2
Продолжительность : 51 м.
Вид битрейта : Постоянный
Битрейт : 128 Кбит/сек
Каналы : 2 канала
Частота : 48,0 КГц
Частота кадров : 41,667 кадра/сек (1152 spf)
Метод сжатия : С потерями
Размер потока : 47,5 Мбайт (3%)
Язык : English
Default : Нет
Forced : Нет
Релиз группы:

picpicpicpicpic
Для увеличения картинки щелкните мышкой по превью

Этот торрент недоступен для скачивания без регистрации, однако доступен по публичной magnet-ссылке (источники с публичных трекеров). Перед использованием ссылки прочтите, пожалуйста Пользовательское соглашение, а также как можно дольше оставайтесь на раздаче! Для того, чтобы скачать сам торрент-файл (который видит больше источников), а также для того, чтобы поблагодарить релизера, вам необходимо зарегистрироваться. Если регистрироваться лень - вы можете также попробовать скачать релиз по нашим партнерским ссылкам ниже.

[underverse.su].t68122.torrent
Трекер: Зарегистрирован   [ 16.07.2016 11:16 ]  

Статус: проверено (by makkol at 16.07.2016 11:35)
Поблагодарили: пока никто не поблагодарил...
Тип торрента: публичный - доступные источники с открытых трекеров: 
Размер: 2,9 GB (занимает 2/3 DVDR, для записи нужно 1 болванка DVDR/RW)
 
 

Яндекс.Метрика powered by Sphinx


В Н И М А Н И Е
Сайт не распространяет и не хранит электронные версии произведений, а лишь бесплатно и без коммерческой выгоды (не требуя взамен платы,
SMS и т.д.) предоставляет доступ к создаваемому пользователями каталогу ссылок на торрент-файлы, которые содержат только списки хеш-сумм.
Убедительная просьба с жалобами обращаться напрямую к пользователю, разместившему торрент файл.

Вверх