Loading...
Error

Повесть о «кавказском разбойнике» (Никита Васильев, Сергей Садовский) [2004 г., документальный, биография, история, кинохроника, SatRip]

Статистика раздачи
Размер:  504 MB   |    Зарегистрирован:  4 месяца 18 дней   |    Скачан:  2 раза

Полного источника не было: 4 месяца 18 дней

Сидов:  0  |  0 KB/s  ]   Личеров:  0  |  0 KB/s  ]

* - сиды/пиры с внешних источников

   
 
Автор Сообщение

ARI71 Пол:Муж

16-Июл-2016 09:56

Повесть о «кавказском разбойнике»


Год выпуска: 2004
Жанр: документальный, биография, история, кинохроника
Страна: Россия «Вертов и Ко»
Режиссер: Никита Васильев, Сергей Садовский
В ролях: историки: Иван Белоконь, Дмитрий Гутнов, Михаил Зуев, Александр Колпакиди, писатель Армен Зурабов
Сюжет фильма:
В 1922 году известный большевик и профессиональный революционер Симон Аршакович Тер-Петросян (Камо) погиб самым нелепым образом, когда ему только исполнилось 40 лет.
Он ехал по ночному Тифлису на велосипеде и был сбит чуть ли не единственным в городе автомобилем. Сразу после происшествия поползли слухи, что гибель революционера не случайна. Разумеется, власти однозначно настаивали на версии несчастного случая.
Но кому могла быть выгодна гибель известного революционера, боевика-террориста? И какие секреты большевиков мог он унести с собой в могилу?

Симо́н Арша́кович Тер-Петрося́н, известный под партийной кличкой Камо; (15 (27) мая 1882, Гори — 14 июля 1922, Тифлис) — российский профессиональный революционер, один из организаторов подпольных типографий, транспорта оружия и литературы, денежных экспроприаций.

Качество видео: SatRip

Продолжительность: 00:43:18
Формат: AVI
Видео: XviD, 704x432, ~1489 kbps
Аудио: русский, (оригинал), MP3 2.0, ~128.00 kbps

Код:

Общее
Полное имя : D:\Повесть о «кавказском разбойнике» (DaVinci).avi
Формат : AVI
Формат/Информация : Audio Video Interleave
Размер файла : 504 Мбайт
Продолжительность : 43 м.
Общий поток : 1627 Кбит/сек
Библиотека кодирования : VirtualDub build 35390/release

Видео
Идентификатор : 0
Формат : MPEG-4 Visual
Профиль формата : Advanced Simple@L5
Параметр BVOP формата : 2
Параметр QPel формата : Нет
Параметр GMC формата : Без точки перехода
Параметр матрицы формата : Default (H.263)
Режим смешивания : Сжатый битовый поток
Идентификатор кодека : XVID
Идентификатор кодека/Подсказка : XviD
Продолжительность : 43 м.
Битрейт : 1489 Кбит/сек
Ширина : 704 пикселя
Высота : 432 пикселя
Соотношение сторон : 16:10
Частота кадров : 25,000 кадров/сек
Цветовое пространство : YUV
Субдискретизация насыщенности : 4:2:0
Битовая глубина : 8 бит
Тип развёртки : Прогрессивная
Метод сжатия : С потерями
Бит/(Пиксели*Кадры) : 0.196
Размер потока : 461 Мбайт (92%)
Библиотека кодирования : XviD 1.2.1 (UTC 2008-12-04)

Аудио
Идентификатор : 1
Формат : MPEG Audio
Версия формата : Version 1
Профиль формата : Layer 3
Режим : Joint stereo
Расширение режима : MS Stereo
Идентификатор кодека : 55
Идентификатор кодека/Подсказка : MP3
Продолжительность : 43 м.
Вид битрейта : Постоянный
Битрейт : 128 Кбит/сек
Каналы : 2 канала
Частота : 48,0 КГц
Метод сжатия : С потерями
Размер потока : 39,6 Мбайт (8%)
Выравнивание : Разделение по промежуткам
Продолжительность промежутка : 40 мс. (1,00 видеокадр)
Время предзагрузки промежутка : 500 мс.
Релиз группы:

picpicpicpicpic
Для увеличения картинки щелкните мышкой по превью

Этот торрент недоступен для скачивания без регистрации, однако доступен по публичной magnet-ссылке (источники с публичных трекеров). Перед использованием ссылки прочтите, пожалуйста Пользовательское соглашение, а также как можно дольше оставайтесь на раздаче! Для того, чтобы скачать сам торрент-файл (который видит больше источников), а также для того, чтобы поблагодарить релизера, вам необходимо зарегистрироваться. Если регистрироваться лень - вы можете также попробовать скачать релиз по нашим партнерским ссылкам ниже.

[underverse.su].t68121.torrent
Трекер: Зарегистрирован   [ 16.07.2016 09:56 ]  

Статус: проверено (by makkol at 16.07.2016 11:31)
Поблагодарили: пока никто не поблагодарил...
Тип торрента: публичный - доступные источники с открытых трекеров: 
Размер: 504 MB (занимает 0,11 DVDR, для записи нужно 1 болванка DVDR/RW)
 
 
Похожие темы
Форум Тема Автор Торрент Отв. Посл. сооб.
T Зарубежное кино [DVDRip, Low-Res HDRip, и т.д.] Повесть о любви и тьме / A Tale of Love and Darkness (Натали Портман) [2015 г., драма, биография, WEBRip] MVO makkol
27 | 0

0 | 279

1

11.10.2016 14:32

T Зарубежное кино [HDDVDRip / BDRip / WEB-DL / HDTV 1080/720р] Повесть о любви и тьме / A Tale of Love and Darkness (Натали Портман) [2015 г., драма, биография, WEBRip 720p] MVO makkol
1 | 0

0 | 214

2

11.10.2016 14:40


Яндекс.Метрика powered by Sphinx


В Н И М А Н И Е
Сайт не распространяет и не хранит электронные версии произведений, а лишь бесплатно и без коммерческой выгоды (не требуя взамен платы,
SMS и т.д.) предоставляет доступ к создаваемому пользователями каталогу ссылок на торрент-файлы, которые содержат только списки хеш-сумм.
Убедительная просьба с жалобами обращаться напрямую к пользователю, разместившему торрент файл.

Вверх