Loading...
Error

(Pop) Artik & Asti - #райодиннадвоих (2013) [FLAC (Image+.Cue), Lossless]

Статистика раздачи
Размер:  301 MB   |    Зарегистрирован:  1 год 11 месяцев   |    Скачан:  8 раз

Полного источника не было: 4 дня

Сидов:  0  |  0 KB/s  ]   Личеров:  0  |  0 KB/s  ]

* - сиды/пиры с внешних источников

   
 
Автор Сообщение

Бишеп Пол:Муж

16-Июл-2016 05:16

Artik & Asti - #райодиннадвоих

Жанр: Pop
Год выпуска: 2013
Источник: CD
Производитель диска: Квадро-Диск - UMGCD13-270
Аудиокодек: FLAC
Тип рипа: Image+.CUE
Битрейт аудио: lossless
Продолжительность: 00:40:34


Треклист:
01. Антистресс
02. Облака
03. Сладкий сон
04. Больше, чем любовь
05. Очень очень
06. До утра
07. На край земли
08. Атом (feat. DJ SMASH)
09. Один на миллион
10. Осколки
11. Держи меня крепче
12. Моя последняя надежда

Код:

Exact Audio Copy V0.99 prebeta 5 from 4. May 2009

Отчёт EAC об извлечении, выполненном 15. ноября 2013, 23:45

Artik & Asti / #райодиннадвоих

Дисковод: TSSTcorpDVD+-RW TS-L632H   Adapter: 3  ID: 0

Режим чтения                 : Достоверность
Использование точного потока : Да
Отключение кэша аудио        : Да
Использование указателей C2  : Нет

Коррекция смещения при чтении                     : 6
Способность читать области Lead-in и Lead-out     : Нет
Заполнение пропущенных сэмплов тишиной            : Да
Удаление блоков с тишиной в начале и конце        : Нет
При вычислениях CRC использовались нулевые сэмплы : Да
Интерфейс                                         : Встроенный Win32-интерфейс для Win NT/2000

Выходной формат : Внутренние WAV-операции
Формат сэмплов  : 44.100 Гц; 16 бит; стерео

TOC извлечённого CD

     Трек |   Старт  | Длительность | Начальный сектор | Конечный сектор
    ---------------------------------------------------------------------
       1  |  0:00.00 |    2:52.56   |           0      |      12955     
       2  |  2:52.56 |    3:38.25   |       12956      |      29330     
       3  |  6:31.06 |    3:19.02   |       29331      |      44257     
       4  |  9:50.08 |    2:54.08   |       44258      |      57315     
       5  | 12:44.16 |    3:00.57   |       57316      |      70872     
       6  | 15:44.73 |    3:30.24   |       70873      |      86646     
       7  | 19:15.22 |    3:17.69   |       86647      |     101490     
       8  | 22:33.16 |    3:47.30   |      101491      |     118545     
       9  | 26:20.46 |    2:58.24   |      118546      |     131919     
      10  | 29:18.70 |    4:29.58   |      131920      |     152152     
      11  | 33:48.53 |    3:29.68   |      152153      |     167895     
      12  | 37:18.46 |    3:15.40   |      167896      |     182560     

Характеристики диапазона извлечения и сообщения об ошибках

Выбранный диапазон

     Имя файла D:\Music\Artik & Asti - #райодиннадвоих.wav

     Пиковый уровень 100.0 %
     Качество диапазона 100.0 %
     CRC теста E2BC94C6
     CRC копии E2BC94C6
     Копирование... OK

Ошибок не произошло

Конец отчёта

Код:

REM GENRE Pop
REM DATE 2013
REM DISCID 9A09820C
REM COMMENT "ExactAudioCopy v0.99pb5"
PERFORMER "Artik & Asti"
TITLE "#райодиннадвоих"
FILE "Artik & Asti - #райодиннадвоих.flac" WAVE
  TRACK 01 AUDIO
    TITLE "Антистресс"
    PERFORMER "Artik & Asti"
    FLAGS DCP
    INDEX 01 00:00:00
  TRACK 02 AUDIO
    TITLE "Облака"
    PERFORMER "Artik & Asti"
    FLAGS DCP
    INDEX 01 02:52:56
  TRACK 03 AUDIO
    TITLE "Сладкий сон"
    PERFORMER "Artik & Asti"
    FLAGS DCP
    INDEX 01 06:31:06
  TRACK 04 AUDIO
    TITLE "Больше, чем любовь"
    PERFORMER "Artik & Asti"
    FLAGS DCP
    INDEX 01 09:50:08
  TRACK 05 AUDIO
    TITLE "Очень очень"
    PERFORMER "Artik & Asti"
    FLAGS DCP
    INDEX 01 12:44:16
  TRACK 06 AUDIO
    TITLE "До утра"
    PERFORMER "Artik & Asti"
    FLAGS DCP
    INDEX 01 15:44:73
  TRACK 07 AUDIO
    TITLE "На край земли"
    PERFORMER "Artik & Asti"
    FLAGS DCP
    INDEX 01 19:15:22
  TRACK 08 AUDIO
    TITLE "Атом (feat. DJ SMASH)"
    PERFORMER "Artik & Asti"
    FLAGS DCP
    INDEX 01 22:33:16
  TRACK 09 AUDIO
    TITLE "Один на миллион"
    PERFORMER "Artik & Asti"
    FLAGS DCP
    INDEX 01 26:20:46
  TRACK 10 AUDIO
    TITLE "Осколки"
    PERFORMER "Artik & Asti"
    FLAGS DCP
    INDEX 01 29:18:70
  TRACK 11 AUDIO
    TITLE "Держи меня крепче"
    PERFORMER "Artik & Asti"
    FLAGS DCP
    INDEX 01 33:48:53
  TRACK 12 AUDIO
    TITLE "Моя последняя надежда"
    PERFORMER "Artik & Asti"
    FLAGS DCP
    INDEX 01 37:18:46

Этот торрент недоступен для скачивания без регистрации, однако доступен по публичной magnet-ссылке (источники с публичных трекеров). Перед использованием ссылки прочтите, пожалуйста Пользовательское соглашение, а также как можно дольше оставайтесь на раздаче! Для того, чтобы скачать сам торрент-файл (который видит больше источников), а также для того, чтобы поблагодарить релизера, вам необходимо зарегистрироваться. Если регистрироваться лень - вы можете также попробовать скачать релиз по нашим партнерским ссылкам ниже. Кроме того, зарегистрированным пользователям не показывается всплывающая реклама при скачивании.

[underverse.su].t68116.torrent
Трекер: Зарегистрирован   [ 16.07.2016 05:16 ]  

Статус: проверено (by Бишеп at 16.07.2016 05:16)
Поблагодарили: 2 человека
Тип торрента: публичный - доступные источники с открытых трекеров: 
Размер: 301 MB (занимает 0,07 DVDR, для записи нужно 1 болванка DVDR/RW)
 
 

Яндекс.Метрика powered by Sphinx


В Н И М А Н И Е
Сайт не распространяет и не хранит электронные версии произведений, а лишь бесплатно и без коммерческой выгоды (не требуя взамен платы,
SMS и т.д.) предоставляет доступ к создаваемому пользователями каталогу ссылок на торрент-файлы, которые содержат только списки хеш-сумм.
Убедительная просьба с жалобами обращаться напрямую к пользователю, разместившему торрент файл.

Вверх