Loading...
Error

Судная ночь 3 / The Purge: Election Year (Джеймс ДеМонако) [2016 г., ужасы, фантастика, боевик, триллер, WEBRip] MVO

Статистика раздачи
Размер:  1,46 GB   |    Зарегистрирован:  4 месяца 20 дней   |    Скачан:  39 раз

Полного источника не было: 12 дней

Сидов:  0  |  0 KB/s  ]   Личеров:  0  |  0 KB/s  ]

* - сиды/пиры с внешних источников

   
 
Автор Сообщение

makkol Пол:Муж

15-Июл-2016 21:38

Судная ночь 3 / The Purge: Election Year
«Один раз в году все преступления законны»


Год выпуска: 2016
Жанр: ужасы, фантастика, боевик, триллер
Производство: Франция , США [Blumhouse Productions, Platinum Dunes, Universal Pictures, Why Not Productions]
Режиссер: Джеймс ДеМонако
В ролях: Фрэнк Грилло, Элизабет Митчелл, Майкелти Уильямсон, Джозеф Джулиан Сория, Бетти Гэбриел, Терри Серпико, Эдвин Ходж, Кайл Сикор, Бэрри Нолан, Лиза Колон-Зайас
Сюжет фильма:
Добро пожаловать в идеальное будущее, в котором Судная ночь превратилась в международный тренд. Туристы со всего мира прибывают в аэропорты Америки: ведь всего лишь раз в году здесь позволено все, главное — дожить до рассвета.

  • Мировая премьера: 29 июня 2016
  • Российская премьера: 28 июля 2016


Качество видео: WEBRip

Продолжительность: 01:48:25
Формат: AVI
Видео: XviD, 720x304 (2.35:1), 23.976 fps, 1723 kbps
Аудио: русский, любительский многоголосый закадровый (Parovoz Production), AC3 2.0, 48 kHz, 192 kbps
Субтитры: китайские вшитые неотключаемые

Код:

Формат                                   : AVI
Формат/Информация                        : Audio Video Interleave
Размер файла                             : 1,46 Гбайт
Продолжительность                        : 1 ч. 48 м.
Общий поток                              : 1924 Кбит/сек
Программа кодирования                    : VirtualDubMod 1.5.10.2 (build 2540/release)
Библиотека кодирования                   : VirtualDubMod build 2540/release

Видео
Идентификатор                            : 0
Формат                                   : MPEG-4 Visual
Профиль формата                          : Advanced Simple@L5
Параметр BVOP формата                    : 2
Параметр QPel формата                    : Нет
Параметр GMC формата                     : Без точки перехода
Параметр матрицы формата                 : Выборочная
Идентификатор кодека                     : XVID
Идентификатор кодека/Подсказка           : XviD
Продолжительность                        : 1 ч. 48 м.
Битрейт                                  : 1723 Кбит/сек
Ширина                                   : 720 пикселей
Высота                                   : 304 пикселя
Соотношение сторон                       : 2,35:1
Частота кадров                           : 23,976 (24000/1001) кадра/сек
Цветовое пространство                    : YUV
Субдискретизация насыщенности            : 4:2:0
Битовая глубина                          : 8 бит
Тип развёртки                            : Прогрессивная
Метод сжатия                             : С потерями
Бит/(Пиксели*Кадры)                      : 0.328
Размер потока                            : 1,30 Гбайт (90%)
Библиотека кодирования                   : XviD 1.2.1 (UTC 2008-12-04)

Аудио
Идентификатор                            : 1
Формат                                   : AC-3
Формат/Информация                        : Audio Coding 3
Расширение режима                        : CM (complete main)
Параметр Endianness формата              : Big
Идентификатор кодека                     : 2000
Продолжительность                        : 1 ч. 48 м.
Вид битрейта                             : Постоянный
Битрейт                                  : 192 Кбит/сек
Каналы                                   : 2 канала
Расположение каналов                     : Front: L R
Частота                                  : 48,0 КГц
Частота кадров                           : 31,250 кадров/сек (1536 spf)
Метод сжатия                             : С потерями
Размер потока                            : 149 Мбайт (10%)
Выравнивание                             : Разделение по промежуткам
Продолжительность промежутка             : 42  мс. (1,00 видеокадр)
Время предзагрузки промежутка            : 500  мс.
Присутствует реклама


picpicpicpicpic
Для увеличения картинки щелкните мышкой по превью

Этот торрент недоступен для скачивания без регистрации, однако доступен по публичной magnet-ссылке (источники с публичных трекеров). Перед использованием ссылки прочтите, пожалуйста Пользовательское соглашение, а также как можно дольше оставайтесь на раздаче! Для того, чтобы скачать сам торрент-файл (который видит больше источников), а также для того, чтобы поблагодарить релизера, вам необходимо зарегистрироваться. Если регистрироваться лень - вы можете также попробовать скачать релиз по нашим партнерским ссылкам ниже.

[underverse.su].t68108.torrent
Трекер: Зарегистрирован   [ 15.07.2016 21:38 ]  

Статус: поглощено (by 90ytr90 at 05.11.2016 06:09)
Поблагодарили: 1 человек
Тип торрента: публичный - доступные источники с открытых трекеров: 
Размер: 1,46 GB (занимает 1/3 DVDR, для записи нужно 1 болванка DVDR/RW)
 
 
Похожие темы
Форум Тема Автор Торрент Отв. Посл. сооб.
Зарубежное кино [DVDRip, Low-Res HDRip, и т.д.] Судная ночь / The Purge (Джеймс ДеМонако) [2013 г., триллер, ужасы, HDRip] Dub Су-34
4 | 0

3 | 1321

19

27.09.2013 16:15

Зарубежное кино [DVDRip, Low-Res HDRip, и т.д.] Судная ночь / The Purge (Джеймс ДеМонако) [2013 г., триллер, ужасы, BDRip-AVC] Dub (iTunes Russia) + Original + Sub (Eng) 90ytr90
1 | 1

0 | 477

8

28.09.2013 16:17

Зарубежное кино [DVDRip, Low-Res HDRip, и т.д.] Судная ночь / The Purge (Джеймс ДеМонако) [2013 г., триллер, ужасы, HDRip] Dub 90ytr90
12 | 0

0 | 1737

26

09.10.2013 15:26

Зарубежное кино [DVDRip, Low-Res HDRip, и т.д.] Судная ночь / The Purge (Джеймс ДеМонако) [2013 г., триллер, ужасы, BDRip-AVC] Dub + Original + Subs 90ytr90
6 | 0

0 | 476

17

09.10.2013 15:41

Зарубежное кино [DVDRip, Low-Res HDRip, и т.д.] Судная ночь 3 / The Purge: Election Year (Джеймс ДеМонако / James DeMonaco) [2016 г., ужасы, фантастика, боевик, триллер, BDRip] Dub + Original (Eng) 90ytr90
89 | 8

0 | 162

1

05.11.2016 06:07

T Зарубежное кино [DVDRip, Low-Res HDRip, и т.д.] Судная ночь 2 / The Purge: Anarchy (Джеймс ДеМонако) [2014 г., триллер, криминал, боевик, WEB-DLRip 720p] MVO (BaibaKo) + Original Паукан
0 | 0

0 | 781

11

11.08.2014 15:01

T Зарубежное кино [DVDRip, Low-Res HDRip, и т.д.] Судная ночь 2 / The Purge: Anarchy (Джеймс ДеМонако) [2014 г., триллер, криминал, боевик, WEB-DLRip] MVO [BaibaKo] Паукан
0 | 0

0 | 870

19

12.08.2014 14:01

Зарубежное кино [DVDRip, Low-Res HDRip, и т.д.] Судная ночь 3 / The Purge: Election Year (Джеймс ДеМонако / James DeMonaco) [2016 г., ужасы, фантастика, боевик, триллер, BDRip-AVC] Dub + Sub (Rus) 90ytr90
100 | 9

0 | 364

3

26.10.2016 16:39

Зарубежное кино [DVDRip, Low-Res HDRip, и т.д.] Судная ночь 3 / The Purge: Election Year (Джеймс ДеМонако / James DeMonaco) [2016 г., ужасы, фантастика, боевик, триллер, BDRip-AVC] Dub + Original (Eng) + Sub (Rus, Eng) 90ytr90
120 | 7

0 | 407

2

26.10.2016 16:35

Зарубежное кино [DVDRip, Low-Res HDRip, и т.д.] Судная ночь 3 / The Purge: Election Year (Джеймс ДеМонако / James DeMonaco) [2016 г., ужасы, фантастика, боевик, триллер, BDRip] Dub 90ytr90
235 | 34

0 | 350

1

26.10.2016 16:13

05-Ноя-2016 06:10

Топик был перенесен из форума Зарубежное кино [DVDRip, Low-Res HDRip, и т.д.] в форум Для поглощенных раздач

Причина переноса: http://underverse.su/viewtopic.php?t=70002
90ytr90
 

Яндекс.Метрика powered by Sphinx


В Н И М А Н И Е
Сайт не распространяет и не хранит электронные версии произведений, а лишь бесплатно и без коммерческой выгоды (не требуя взамен платы,
SMS и т.д.) предоставляет доступ к создаваемому пользователями каталогу ссылок на торрент-файлы, которые содержат только списки хеш-сумм.
Убедительная просьба с жалобами обращаться напрямую к пользователю, разместившему торрент файл.

Вверх