Loading...
Error

Каникулы на ранчо / Horse Sense (Грег Биман) [1999 г., драма, семейный, VHSRip] MVO

Статистика раздачи
Размер:  1,26 GB   |    Зарегистрирован:  4 месяца 21 день   |    Скачан:  0 раз

Полного источника не было: 4 месяца 15 дней

Сидов:  0  |  0 KB/s  ]   Личеров:  0  |  0 KB/s  ]

* - сиды/пиры с внешних источников

   
 
Автор Сообщение

makkol Пол:Муж

15-Июл-2016 13:39

Каникулы на ранчо / Horse Sense


Год выпуска: 1999
Жанр: драма, семейный
Производство: США [Hal Roach Studios Inc.]
Режиссер: Грег Биман
В ролях: Джозеф Лоуренс, Эндрю Лоуренс, Сьюзэн Уолтерс, М. К. Гейни, Лиэнн Ханли, Робин Томас, Джоли Дженкинс, Стив Ривис, Фреда Фо Шен, Иан Огилви
Сюжет фильма:
Майкл отвратительно вел себя со своим кузеном Томом, пока тот гостил у его родителей в Лос-Анджелесе. Настало время ответного визита и родители Майкла отправили своего избалованного сынка на летние каникулы в Монтану, на ферму.
Майкл вынужден терпеть издевательства Тома, который отчаянно мстит своему отвратительному братцу. Майклу не терпится вернуться домой, но совершенно случайно он узнает, что Томи и его мама могут лишиться своей фермы.
Они слишком горды, чтобы принять его финансовую помощь. Майклу придется принять весьма непростое решение…

  • Мировая премьера: 20 ноября 1999


Качество видео: VHSRip

Продолжительность: 01:28:43
Формат: AVI
Видео: XviD, 640x480 (4:3), 25.000 fps, 1899 kbps
Аудио: русский, профессиональный многоголосый закадровый (Селена Интернешнл), AC3 2.0, 48 kHz, 128 kbps

Код:

Формат                                   : AVI
Формат/Информация                        : Audio Video Interleave
Размер файла                             : 1,26 Гбайт
Продолжительность                        : 1 ч. 28 м.
Общий поток                              : 2037 Кбит/сек
Программа кодирования                    : VirtualDubMod 1.5.10.2 (build 2540/release)
Библиотека кодирования                   : VirtualDubMod build 2540/release

Видео
Идентификатор                            : 0
Формат                                   : MPEG-4 Visual
Профиль формата                          : Advanced Simple@L5
Параметр BVOP формата                    : 2
Параметр QPel формата                    : Нет
Параметр GMC формата                     : Без точки перехода
Параметр матрицы формата                 : Default (H.263)
Идентификатор кодека                     : XVID
Идентификатор кодека/Подсказка           : XviD
Продолжительность                        : 1 ч. 28 м.
Битрейт                                  : 1899 Кбит/сек
Ширина                                   : 640 пикселей
Высота                                   : 480 пикселей
Соотношение сторон                       : 4:3
Частота кадров                           : 25,000 кадров/сек
Цветовое пространство                    : YUV
Субдискретизация насыщенности            : 4:2:0
Битовая глубина                          : 8 бит
Тип развёртки                            : Прогрессивная
Метод сжатия                             : С потерями
Бит/(Пиксели*Кадры)                      : 0.247
Размер потока                            : 1,18 Гбайт (93%)
Библиотека кодирования                   : XviD 1.2.1 (UTC 2008-12-04)

Аудио
Идентификатор                            : 1
Формат                                   : AC-3
Формат/Информация                        : Audio Coding 3
Расширение режима                        : CM (complete main)
Параметр Endianness формата              : Big
Идентификатор кодека                     : 2000
Продолжительность                        : 1 ч. 28 м.
Вид битрейта                             : Постоянный
Битрейт                                  : 128 Кбит/сек
Каналы                                   : 2 канала
Расположение каналов                     : Front: L R
Частота                                  : 48,0 КГц
Метод сжатия                             : С потерями
Размер потока                            : 81,2 Мбайт (6%)
Выравнивание                             : Соединение по промежуткам
Продолжительность промежутка             : 40  мс. (1,00 видеокадр)
Время предзагрузки промежутка            : 512  мс.
Релиз: оцифровка VHS от novikov79

picpicpicpicpic
Для увеличения картинки щелкните мышкой по превью

Этот торрент недоступен для скачивания без регистрации, однако доступен по публичной magnet-ссылке (источники с публичных трекеров). Перед использованием ссылки прочтите, пожалуйста Пользовательское соглашение, а также как можно дольше оставайтесь на раздаче! Для того, чтобы скачать сам торрент-файл (который видит больше источников), а также для того, чтобы поблагодарить релизера, вам необходимо зарегистрироваться. Если регистрироваться лень - вы можете также попробовать скачать релиз по нашим партнерским ссылкам ниже.

[underverse.su].t68097.torrent
Трекер: Зарегистрирован   [ 15.07.2016 13:39 ]  

Статус: проверено (by makkol at 19.07.2016 14:35)
Поблагодарили: пока никто не поблагодарил...
Тип торрента: публичный - доступные источники с открытых трекеров: 
Размер: 1,26 GB (занимает 0,29 DVDR, для записи нужно 1 болванка DVDR/RW)
 
 
Похожие темы
Форум Тема Автор Торрент Отв. Посл. сооб.
Зарубежное кино [DVDRip, Low-Res HDRip, и т.д.] Каникулы на море / Le Skylab (Жюли Дельпи) [2011 г., комедия, WEB-DLRip] MVO RG NewCinema
0 | 0

0 | 949

12

16.04.2013 13:18

Зарубежное кино [DVDRip, Low-Res HDRip, и т.д.] Каникулы на ранчо / Horse Sense (Грег Биман) [1999 г., драма, семейный, TVRip-AVC] MVO makkol
5 | 0

0 | 273

0

30.07.2016 15:28


Яндекс.Метрика powered by Sphinx


В Н И М А Н И Е
Сайт не распространяет и не хранит электронные версии произведений, а лишь бесплатно и без коммерческой выгоды (не требуя взамен платы,
SMS и т.д.) предоставляет доступ к создаваемому пользователями каталогу ссылок на торрент-файлы, которые содержат только списки хеш-сумм.
Убедительная просьба с жалобами обращаться напрямую к пользователю, разместившему торрент файл.

Вверх