Loading...
Error

Удивительные пауки / Incredible spiders (Джессика Коннелл) [2015 г., документальный, природа, фауна, HDTVRip-AVC] Dub

Статистика раздачи
Размер:  694 MB   |    Зарегистрирован:  4 месяца 27 дней   |    Скачан:  1 раз

Полного источника не было: 4 месяца 26 дней

Сидов:  0  |  0 KB/s  ]   Личеров:  0  |  0 KB/s  ]

* - сиды/пиры с внешних источников

   
 
Автор Сообщение

ARI71 Пол:Муж

14-Июл-2016 18:14

Удивительные пауки / Incredible spiders


Год выпуска: 2015
Жанр: документальный, природа, фауна
Страна: США National Geographic
Режиссер: Джессика Коннелл
Сюжет фильма:
В жутком царстве, недоступном для наших глаз, правят восьминогие чудовища. Они обитают в тропических джунглях, безжизненных пустынях и даже под водой. Среди них встречаются плотоядные гиганты, восстающие из-под земли. Некоторые оснащены целым арсеналом оружия. А в лесах бассейна Амазонки живёт исполин, который затмевает их всех - самый большой паук на нашей планете. Пауки, живущие на Земле обладают множеством странных и удивительных способностей. Они стреляют щетинками, танцуют диско, являются умелыми акробатами и метателями паутины, умеют ходить по воде и даже летать. Эти восьминогие и восьмиглазые существа занимают важное место в экосистеме нашей планеты.. Миллионы лет они доказывают нам, что способны не просто выживать в самых разнообразных и экстремальных климатах Земли но и процветать в них. И хоть у них плохая репутация, планета не была бы прежней без удивительных пауков. Познакомьтесь с самыми удивительными пауками и исследуйте скрытый мир, которым правят волосатые восьминогие монстры, являющиеся самыми универсальными машинами для убийства на планете.
Качество видео: HDTVRip-AVC

Продолжительность: 00:43:59
Формат: MKV
Видео: AVC (x264), 1024x576, ~2013 kbps
Аудио: русский, (дублированный), MP2, 2.0, ~192.00 kbps

Код:

Общее
Уникальный идентификатор : 187655273728472138471680878530062059202 (0x8D2D1751A5A3AA3FA07822063AC606C2)
Полное имя : D:\Udevitelnie.Pauki.2015.HDTVRip(AVC).by.KinoHitHD.mkv
Формат : Matroska
Версия формата : Version 2
Размер файла : 694 Мбайт
Продолжительность : 43 м.
Общий поток : 2207 Кбит/сек
Дата кодирования : UTC 2016-07-12 11:54:15
Программа кодирования : mkvmerge v7.8.0 ('River Man') 32bit built on Apr 3 2015 12:11:22
Библиотека кодирования : libebml v1.3.1 + libmatroska v1.4.2

Видео
Идентификатор : 1
Формат : AVC
Формат/Информация : Advanced Video Codec
Профиль формата : High@L4.1
Параметр CABAC формата : Да
Параметр ReFrames формата : 9 кадров
Идентификатор кодека : V_MPEG4/ISO/AVC
Продолжительность : 43 м.
Битрейт : 2013 Кбит/сек
Ширина : 1024 пикселя
Высота : 576 пикселей
Соотношение сторон : 16:9
Режим частоты кадров : Постоянный
Частота кадров : 25,000 кадров/сек
Цветовое пространство : YUV
Субдискретизация насыщенности : 4:2:0
Битовая глубина : 8 бит
Тип развёртки : Прогрессивная
Бит/(Пиксели*Кадры) : 0.137
Размер потока : 620 Мбайт (89%)
Библиотека кодирования : x264 core 146 r2538 121396c
Настройки программы : cabac=1 / ref=9 / deblock=1:-3:-3 / analyse=0x3:0x113 / me=umh / subme=11 / psy=1 / psy_rd=1.00:0.00 / mixed_ref=1 / me_range=48 / chroma_me=1 / trellis=2 / 8x8dct=1 / cqm=0 / deadzone=21,11 / fast_pskip=0 / chroma_qp_offset=-2 / threads=6 / lookahead_threads=1 / sliced_threads=0 / nr=0 / decimate=0 / interlaced=0 / bluray_compat=0 / constrained_intra=0 / bframes=8 / b_pyramid=2 / b_adapt=2 / b_bias=0 / direct=3 / weightb=1 / open_gop=0 / weightp=2 / keyint=240 / keyint_min=23 / scenecut=40 / intra_refresh=0 / rc_lookahead=40 / rc=2pass / mbtree=1 / bitrate=2013 / ratetol=1.0 / qcomp=0.60 / qpmin=0 / qpmax=69 / qpstep=4 / cplxblur=20.0 / qblur=0.5 / vbv_maxrate=14000 / vbv_bufsize=14000 / nal_hrd=none / filler=0 / ip_ratio=1.40 / aq=1:1.10
Default : Да
Forced : Нет

Аудио
Идентификатор : 2
Формат : MPEG Audio
Версия формата : Version 1
Профиль формата : Layer 2
Идентификатор кодека : A_MPEG/L2
Идентификатор кодека/Подсказка : MP2
Продолжительность : 43 м.
Вид битрейта : Постоянный
Битрейт : 192 Кбит/сек
Каналы : 2 канала
Частота : 48,0 КГц
Метод сжатия : С потерями
Размер потока : 60,4 Мбайт (9%)
Язык : Russian
Default : Да
Forced : Нет
picpicpicpicpic
Для увеличения картинки щелкните мышкой по превью

Этот торрент недоступен для скачивания без регистрации, однако доступен по публичной magnet-ссылке (источники с публичных трекеров). Перед использованием ссылки прочтите, пожалуйста Пользовательское соглашение, а также как можно дольше оставайтесь на раздаче! Для того, чтобы скачать сам торрент-файл (который видит больше источников), а также для того, чтобы поблагодарить релизера, вам необходимо зарегистрироваться. Если регистрироваться лень - вы можете также попробовать скачать релиз по нашим партнерским ссылкам ниже.

[underverse.su].t68088.torrent
Трекер: Зарегистрирован   [ 14.07.2016 18:14 ]  

Статус: проверено (by makkol at 14.07.2016 22:33)
Поблагодарили: пока никто не поблагодарил...
Тип торрента: публичный - доступные источники с открытых трекеров: 
Размер: 694 MB (занимает 0,15 DVDR, для записи нужно 1 болванка DVDR/RW)
 
 
Похожие темы
Форум Тема Автор Торрент Отв. Посл. сооб.
Зарубежное кино [DVDRip, Low-Res HDRip, и т.д.] Удивительная жизнь учителей / Реальная жизнь учителей / La Vraie vie des profs (Эммануэль Клотц, Альберт Перейра-Лазаро) [2013 г., комедия, HDRip] MVO makkol
23 | 2

0 | 435

5

31.08.2016 14:04

Кино СССР Удивительные приключения Дениса Кораблева (Игорь Пушкарев, Игорь Добролюбов, Виталий Дудин) [1979 г., детский, семейный, DVDRip] 90ytr90
1 | 0

0 | 1632

7

21.10.2013 18:24

National Geographic Удивительные пауки / Incredible spiders [2015 г., документальный, научно-познавательный, HDTVRip 720p] Dub + Original (Eng) ARI71
1 | 0

0 | 998

5

23.05.2016 21:24

National Geographic Удивительные насекомые / Incredible Insects [2015 г., документальный, научно-познавательный, HDTVRip] VO ARI71
30 | 0

0 | 541

4

08.06.2016 09:11

National Geographic Удивительные пауки / Incredible spiders (Джессика Коннелл) [2015 г., документальный, природа, фауна, HDTV 1080i] Dub ARI71
10 | 0

0 | 395

3

13.07.2016 16:20

BBC Удивительный мир крови / The Wonderful World of Blood with Michael Mosley [2015 г., документальный, научно-познавательный, HDTVRip 720p] Dub ARI71
1 | 0

0 | 707

10

26.04.2016 10:22

BBC Удивительный мир крови / The Wonderful World of Blood with Michael Mosley [2015 г., документальный, научно-познавательный, HDTVRip] Dub ARI71
0 | 0

0 | 821

2

09.05.2016 15:06

Научно-популярные фильмы Удивительные копатели / Incredible Diggers [2015 г., документальный, флора, фауна, HDTVRip] VO ARI71
9 | 0

0 | 325

1

10.06.2016 12:27

Другие фильмы Удивительные яхты / Extreme Yachts (1 сезон: 1-6 серий из 6) / (Дэнис Зерулл, Энди Робинсон) [2012 г., документальный, инженерия, дизайн, HDTVRip 720p] DVO ARI71
2 | 0

0 | 391

3

23.09.2016 14:27

Зарубежное кино [HDDVDRip / BDRip / WEB-DL / HDTV 1080/720р] Удивительная жизнь учителей / Реальная жизнь учителей / La Vraie vie des profs (Эммануэль Клотц, Альберт Перейра-Лазаро) [2013 г., комедия, BDRip 720p] MVO + Original makkol
15 | 3

0 | 322

0

31.08.2016 14:44


Яндекс.Метрика powered by Sphinx


В Н И М А Н И Е
Сайт не распространяет и не хранит электронные версии произведений, а лишь бесплатно и без коммерческой выгоды (не требуя взамен платы,
SMS и т.д.) предоставляет доступ к создаваемому пользователями каталогу ссылок на торрент-файлы, которые содержат только списки хеш-сумм.
Убедительная просьба с жалобами обращаться напрямую к пользователю, разместившему торрент файл.

Вверх