Loading...
Error

Невезучие / Tais-toi! (Франсис Вебер) [2003 г., комедия, BDRip-AVC] DVO + Dub + Original + Subs

Статистика раздачи
Размер:  1,48 GB   |    Зарегистрирован:  4 месяца 21 день   |    Скачан:  10 раз

Полного источника не было: 2 месяца 8 дней

Сидов:  0  |  0 KB/s  ]   Личеров:  0  |  0 KB/s  ]

* - сиды/пиры с внешних источников

   
 
Автор Сообщение

makkol Пол:Муж

14-Июл-2016 10:19

Невезучие / Tais-toi!
«Им наконец повезло!»


Год выпуска: 2003
Жанр: комедия
Производство: Франция , Италия [Union Générale Cinématographique (UGC), DD Productions, EFVE]
Режиссер: Франсис Вебер
В ролях: Жерар Депардье, Жан Рено, Ришар Берри, Андре Дюссолье, Жан-Пьер Мало, Жан-Мишель Нуари, Лорен Гамелон, Орельен Рекуан, Винсен Москат, Тики Хольгадо, Мишель Омон, Леонор Варела
Сюжет фильма:
Руби успевает спрятать награбленные деньги прежде, чем угодить в тюрьму, где знакомится с верзилой Квентином. Теперь они вместе ломают голову над тем, как выбраться на волю и вытащить деньги из тайника… К тому же Руби мечтает отомстить своим бывшим компаньонам, ответственным за смерть его возлюбленной! Но вот как-то им все время не везет! Однако, недаром говорят, если долго мучиться…

  • Мировая премьера: 22 октября 2003
  • Российская премьера: 25 декабря 2003


Качество видео: BDRip-AVC

Продолжительность: 01:27:07
Формат: MKV
Видео: MPEG-4 AVC, 1024x432 (2.40:1), 23.976 fps, 1850 kbps
Аудио #1: русский, профессиональный двухголосый закадровый (Ren-TV), AC3 2.0, 48 kHz, 192 kbps
Аудио #2: русский, дублированный, AC3 2.0, 48 kHz, 192 kbps
Аудио #3: французский, оригинал, AC3 2.0, 48 kHz, 192 kbps
Субтитры: русские, английские вшитые отключаемые

Код:

Format : Matroska
Format version : Version 4 / Version 2
File size : 1.48 GiB
Duration : 1h 27mn
Overall bit rate : 2 427 Kbps
Encoded date : UTC 2016-06-01 18:21:19
Writing application : mkvmerge v6.1.0 ('Old Devil') built on Mar 4 2013 09:10:42
Writing library : libebml v1.3.0 + libmatroska v1.4.0

Video
ID : 1
Format : AVC
Format/Info : Advanced Video Codec
Format profile : Main@L4.1
Format settings, CABAC : Yes
Format settings, ReFrames : 14 frames
Codec ID : V_MPEG4/ISO/AVC
Duration : 1h 27mn
Bit rate : 1 850 Kbps
Width : 1 024 pixels
Height : 432 pixels
Display aspect ratio : 2.40:1
Frame rate mode : Constant
Frame rate : 23.976 fps
Color space : YUV
Chroma subsampling : 4:2:0
Bit depth : 8 bits
Scan type : Progressive
Bits/(Pixel*Frame) : 0.174
Stream size : 1.10 GiB (74%)
Writing library : x264 core 130 r2273 b3065e6
Encoding settings : cabac=1 / ref=14 / deblock=1:0:0 / analyse=0x1:0x111 / me=umh / subme=11 / psy=1 / psy_rd=1.00:0.00 / mixed_ref=1 / me_range=24 / chroma_me=1 / trellis=2 / 8x8dct=0 / cqm=0 / deadzone=21,11 / fast_pskip=1 / chroma_qp_offset=-2 / threads=3 / lookahead_threads=1 / sliced_threads=0 / nr=0 / decimate=0 / interlaced=0 / bluray_compat=0 / constrained_intra=0 / bframes=10 / b_pyramid=2 / b_adapt=0 / b_bias=0 / direct=3 / weightb=1 / open_gop=0 / weightp=2 / keyint=250 / keyint_min=23 / scenecut=40 / intra_refresh=0 / rc_lookahead=60 / rc=2pass / mbtree=1 / bitrate=1850 / ratetol=1.0 / qcomp=0.60 / qpmin=10 / qpmax=69 / qpstep=4 / cplxblur=20.0 / qblur=0.5 / vbv_maxrate=10000 / vbv_bufsize=62500 / nal_hrd=none / ip_ratio=1.40 / aq=2:1.10
Default : Yes
Forced : No

Audio #1
ID : 2
Format : AC-3
Format/Info : Audio Coding 3
Mode extension : CM (complete main)
Format settings, Endianness : Big
Codec ID : A_AC3
Duration : 1h 27mn
Bit rate mode : Constant
Bit rate : 192 Kbps
Channel(s) : 2 channels
Channel positions : Front: L R
Sampling rate : 48.0 KHz
Compression mode : Lossy
Stream size : 120 MiB (8%)
Title : DVO (Ren-TV)
Language : Russian
Default : Yes
Forced : No

Audio #2
ID : 3
Format : AC-3
Format/Info : Audio Coding 3
Mode extension : CM (complete main)
Format settings, Endianness : Big
Codec ID : A_AC3
Duration : 1h 27mn
Bit rate mode : Constant
Bit rate : 192 Kbps
Channel(s) : 2 channels
Channel positions : Front: L R
Sampling rate : 48.0 KHz
Compression mode : Lossy
Stream size : 120 MiB (8%)
Title : Дубляж
Language : Russian
Default : No
Forced : No

Audio #3
ID : 4
Format : AC-3
Format/Info : Audio Coding 3
Mode extension : CM (complete main)
Format settings, Endianness : Big
Codec ID : A_AC3
Duration : 1h 27mn
Bit rate mode : Constant
Bit rate : 192 Kbps
Channel(s) : 2 channels
Channel positions : Front: L R
Sampling rate : 48.0 KHz
Compression mode : Lossy
Stream size : 120 MiB (8%)
Title : Оригинал
Language : French
Default : No
Forced : No

Text #1
ID : 5
Format : UTF-8
Codec ID : S_TEXT/UTF8
Codec ID/Info : UTF-8 Plain Text
Language : Russian
Default : Yes
Forced : No

Text #2
ID : 6
Format : UTF-8
Codec ID : S_TEXT/UTF8
Codec ID/Info : UTF-8 Plain Text
Language : English
Default : No
Forced : No
picpicpicpicpic
Для увеличения картинки щелкните мышкой по превью

Этот торрент недоступен для скачивания без регистрации, однако доступен по публичной magnet-ссылке (источники с публичных трекеров). Перед использованием ссылки прочтите, пожалуйста Пользовательское соглашение, а также как можно дольше оставайтесь на раздаче! Для того, чтобы скачать сам торрент-файл (который видит больше источников), а также для того, чтобы поблагодарить релизера, вам необходимо зарегистрироваться. Если регистрироваться лень - вы можете также попробовать скачать релиз по нашим партнерским ссылкам ниже.

[underverse.su].t68081.torrent
Трекер: Зарегистрирован   [ 14.07.2016 10:19 ]  

Статус: проверено (by makkol at 14.07.2016 23:54)
Поблагодарили: пока никто не поблагодарил...
Тип торрента: публичный - доступные источники с открытых трекеров: 
Размер: 1,48 GB (занимает 0,34 DVDR, для записи нужно 1 болванка DVDR/RW)
 
 
Похожие темы
Форум Тема Автор Торрент Отв. Посл. сооб.
Архив Невезучие / La Chevre (Франсис Вебер) [ 1981 г., комедия, приключения, криминал, DVDRip] ЭГО
0 | 0

4 | 1451

14

29.08.2010 23:52


Яндекс.Метрика powered by Sphinx


В Н И М А Н И Е
Сайт не распространяет и не хранит электронные версии произведений, а лишь бесплатно и без коммерческой выгоды (не требуя взамен платы,
SMS и т.д.) предоставляет доступ к создаваемому пользователями каталогу ссылок на торрент-файлы, которые содержат только списки хеш-сумм.
Убедительная просьба с жалобами обращаться напрямую к пользователю, разместившему торрент файл.

Вверх