Loading...
Error

Золотая махмудия / Zlota Mahmudia (Казимеж Тарнас) [1987 г., приключения, семейный, DVDRip-AVC] VO + Original + Subs

Статистика раздачи
Размер:  2,06 GB   |    Зарегистрирован:  4 месяца 20 дней   |    Скачан:  1 раз

Полного источника не было: 4 месяца 20 дней

Сидов:  0  |  0 KB/s  ]   Личеров:  0  |  0 KB/s  ]

* - сиды/пиры с внешних источников

   
 
Автор Сообщение

makkol Пол:Муж

13-Июл-2016 22:43

Золотая махмудия / Zlota Mahmudia


Год выпуска: 1987
Жанр: приключения, семейный
Производство: Польша , Болгария [Filmstudio Bojana, Zespól Filmowy "Profil"]
Режиссер: Казимеж Тарнас
В ролях: Рафал Венгжиняк, Норберт Клищевский, Петр Иванов, Миколай Качмарек, Здзислав Кожень, Леон Немчик, Бронислав Чесьляк, Досьо Досев, Рох Семяновский, Артур Жмиевский
Сюжет фильма:
Экранизация одноименной повести Леслава Бартельского. Польский школьник Пётрек вместе с родителями и младшим братом проводит каникулы на Черном море в Болгарии в доме рыбака Славчо. Однажды вечером у костра Славчо рассказывает легенду о прекрасной Раде, дочери турецкого бея Махмуда: отец намеревался выдать ее замуж за знатного вельможу, но она влюбилась в бедного рыбака и сбежала с ним из отцовского дома. Разыгрался шторм и корабль влюбленных затонул вместе с золотом, которое предназначалось Раде в приданное...
На следующее утро Пётрик и его ровесник Стась, сын Славчо, прокрадываются на отплывающее в море судно и прячутся там. Отцы мальчиков, узнав, что они исчезли, начинают поиски. Между тем, команда корабля обнаруживает незваных гостей. Один из моряков требует, чтобы мальчики помогли ему поднять со дна старинный сундук...

  • Мировая премьера: 2 марта 1987


Качество видео: DVDRip-AVC

Продолжительность: 01:17:15
Формат: MKV
Видео: MPEG-4 AVC, 704x544, 25.000 fps, 3351 kbps
Аудио #1: русский, любительский одноголосый закадровый (Семен Ващенко), AC3 2.0, 48 kHz, 192 kbps
Аудио #2: польский, оригинал, AC3 2.0, 48 kHz, 192 kbps
Субтитры: русские (Professor) вшитые отключаемые

Код:

Format                                   : Matroska
Format version                           : Version 4 / Version 2
File size                                : 2.06 GiB
Duration                                 : 1h 17mn
Overall bit rate                         : 3 811 Kbps
Encoded date                             : UTC 2016-07-12 08:33:01
Writing application                      : mkvmerge v8.7.0 ('All of the above') 64bit
Writing library                          : libebml v1.3.3 + libmatroska v1.4.4
DURATION                                 : 01:14:56.200000000
NUMBER_OF_FRAMES                         : 632
NUMBER_OF_BYTES                          : 33478
_STATISTICS_WRITING_APP                  : mkvmerge v8.7.0 ('All of the above') 64bit
_STATISTICS_WRITING_DATE_UTC             : 2016-07-12 08:33:01
_STATISTICS_TAGS                         : BPS DURATION NUMBER_OF_FRAMES NUMBER_OF_BYTES

Video
ID                                       : 1
Format                                   : AVC
Format/Info                              : Advanced Video Codec
Format profile                           : High@L3.0
Format settings, CABAC                   : No
Format settings, ReFrames                : 4 frames
Codec ID                                 : V_MPEG4/ISO/AVC
Duration                                 : 1h 17mn
Bit rate                                 : 3 351 Kbps
Width                                    : 704 pixels
Height                                   : 544 pixels
Display aspect ratio                     : 1.294
Frame rate mode                          : Constant
Frame rate                               : 25.000 fps
Color space                              : YUV
Chroma subsampling                       : 4:2:0
Bit depth                                : 8 bits
Scan type                                : Progressive
Bits/(Pixel*Frame)                       : 0.350
Stream size                              : 1.81 GiB (88%)
Writing library                          : x264 core 132
Encoding settings                        : cabac=0 / ref=3 / deblock=1:0:0 / analyse=0x3:0x113 / me=hex / subme=7 / psy=1 / psy_rd=1.00:0.00 / mixed_ref=1 / me_range=16 / chroma_me=1 / trellis=1 / 8x8dct=1 / cqm=0 / deadzone=21,11 / fast_pskip=1 / chroma_qp_offset=-2 / threads=60 / lookahead_threads=4 / sliced_threads=0 / nr=0 / decimate=1 / interlaced=0 / bluray_compat=0 / constrained_intra=0 / bframes=3 / b_pyramid=2 / b_adapt=1 / b_bias=0 / direct=1 / weightb=1 / open_gop=0 / weightp=0 / keyint=250 / keyint_min=25 / scenecut=40 / intra_refresh=0 / rc_lookahead=40 / rc=crf / mbtree=1 / crf=22.0 / qcomp=0.60 / qpmin=3 / qpmax=69 / qpstep=4 / ip_ratio=1.40 / aq=1:1.00
Default                                  : Yes
Forced                                   : No
Color primaries                          : BT.601 PAL
Transfer characteristics                 : BT.709
Matrix coefficients                      : BT.601
Color range                              : Limited

Audio #1
ID                                       : 2
Format                                   : AC-3
Format/Info                              : Audio Coding 3
Mode extension                           : CM (complete main)
Format settings, Endianness              : Big
Codec ID                                 : A_AC3
Duration                                 : 1h 17mn
Bit rate mode                            : Constant
Bit rate                                 : 192 Kbps
Channel(s)                               : 2 channels
Channel positions                        : Front: L R
Sampling rate                            : 48.0 KHz
Bit depth                                : 16 bits
Compression mode                         : Lossy
Stream size                              : 106 MiB (5%)
Language                                 : Russian
Default                                  : Yes
Forced                                   : No

Audio #2
ID                                       : 3
Format                                   : AC-3
Format/Info                              : Audio Coding 3
Mode extension                           : CM (complete main)
Format settings, Endianness              : Big
Codec ID                                 : A_AC3
Duration                                 : 1h 17mn
Bit rate mode                            : Constant
Bit rate                                 : 192 Kbps
Channel(s)                               : 2 channels
Channel positions                        : Front: L R
Sampling rate                            : 48.0 KHz
Bit depth                                : 16 bits
Compression mode                         : Lossy
Stream size                              : 106 MiB (5%)
Language                                 : Polish
Default                                  : No
Forced                                   : No

Text
ID                                       : 4
Format                                   : UTF-8
Codec ID                                 : S_TEXT/UTF8
Codec ID/Info                            : UTF-8 Plain Text
Language                                 : Russian
Default                                  : Yes
Forced                                   : No
picpicpicpicpic
Для увеличения картинки щелкните мышкой по превью

Этот торрент недоступен для скачивания без регистрации, однако доступен по публичной magnet-ссылке (источники с публичных трекеров). Перед использованием ссылки прочтите, пожалуйста Пользовательское соглашение, а также как можно дольше оставайтесь на раздаче! Для того, чтобы скачать сам торрент-файл (который видит больше источников), а также для того, чтобы поблагодарить релизера, вам необходимо зарегистрироваться. Если регистрироваться лень - вы можете также попробовать скачать релиз по нашим партнерским ссылкам ниже.

[underverse.su].t68080.torrent
Трекер: Зарегистрирован   [ 13.07.2016 22:43 ]  

Статус: проверено (by makkol at 14.07.2016 23:53)
Поблагодарили: пока никто не поблагодарил...
Тип торрента: публичный - доступные источники с открытых трекеров: 
Размер: 2,06 GB (занимает 0,47 DVDR, для записи нужно 1 болванка DVDR/RW)
 
 

Яндекс.Метрика powered by Sphinx


В Н И М А Н И Е
Сайт не распространяет и не хранит электронные версии произведений, а лишь бесплатно и без коммерческой выгоды (не требуя взамен платы,
SMS и т.д.) предоставляет доступ к создаваемому пользователями каталогу ссылок на торрент-файлы, которые содержат только списки хеш-сумм.
Убедительная просьба с жалобами обращаться напрямую к пользователю, разместившему торрент файл.

Вверх