Loading...
Error

Удивительные пауки / Incredible spiders (Джессика Коннелл) [2015 г., документальный, природа, фауна, HDTV 1080i] Dub

Статистика раздачи
Размер:  2,26 GB   |    Зарегистрирован:  4 месяца 26 дней   |    Скачан:  3 раза
Сидов:  1  |  0 KB/s  ]   Личеров:  0  |  0 KB/s  ]

* - сиды/пиры с внешних источников

   
 
Автор Сообщение

ARI71 Пол:Муж

13-Июл-2016 16:20

Удивительные пауки / Incredible spiders


Год выпуска: 2015
Жанр: документальный, природа, фауна
Страна: США National Geographic
Режиссер: Джессика Коннелл
Сюжет фильма:
В жутком царстве, недоступном для наших глаз, правят восьминогие чудовища. Они обитают в тропических джунглях, безжизненных пустынях и даже под водой. Среди них встречаются плотоядные гиганты, восстающие из-под земли. Некоторые оснащены целым арсеналом оружия. А в лесах бассейна Амазонки живёт исполин, который затмевает их всех - самый большой паук на нашей планете. Пауки, живущие на Земле обладают множеством странных и удивительных способностей. Они стреляют щетинками, танцуют диско, являются умелыми акробатами и метателями паутины, умеют ходить по воде и даже летать. Эти восьминогие и восьмиглазые существа занимают важное место в экосистеме нашей планеты. Миллионы лет они доказывают нам, что способны не просто выживать в самых разнообразных и экстремальных климатах Земли но и процветать в них. И хоть у них плохая репутация, планета не была бы прежней без удивительных пауков. Познакомьтесь с самыми удивительными пауками и исследуйте скрытый мир, которым правят волосатые восьминогие монстры, являющиеся самыми универсальными машинами для убийства на планете.
Качество видео: HDTV 1080i

Продолжительность: 00:43:59
Формат: MPEG-TS
Видео: AVC, 1920x1080 (16:9), 25 fps, (High@L4) ~6801 kbps avg, 0.131 bit/pixel
Аудио: русский, (дублированный), MP2 2.0, ~192.00 kbps

Код:

Общее
Идентификатор : 1 (0x1)
Полное имя : D:\Udevitelnie.Pauki.2015.HDTV.1080i.by.KinoHitHD.ts
Формат : MPEG-TS
Размер файла : 2,26 Гбайт
Продолжительность : 43 м.
Режим общего битрейта : Переменный
Общий поток : 7358 Кбит/сек

Видео
Идентификатор : 201 (0xC9)
Идентификатор меню : 20101 (0x4E85)
Формат : AVC
Формат/Информация : Advanced Video Codec
Профиль формата : High@L4
Параметр CABAC формата : Да
Параметр ReFrames формата : 4 кадра
Идентификатор кодека : 27
Продолжительность : 43 м.
Битрейт : 6801 Кбит/сек
Ширина : 1920 пикселей
Высота : 1080 пикселей
Соотношение сторон : 16:9
Частота кадров : 25,000 кадров/сек
Цветовое пространство : YUV
Субдискретизация насыщенности : 4:2:0
Битовая глубина : 8 бит
Тип развёртки : Чересстрочная
Метод сохранения типа развёртки : Раздельные поля
Порядок развёртки : Нижнее поле первое
Бит/(Пиксели*Кадры) : 0.131
Размер потока : 2,09 Гбайт (92%)
Цветовой диапазон : Limited
Основные цвета : BT.709
Характеристики трансфера : BT.709
Коэффициенты матрицы : BT.709

Аудио
Идентификатор : 301 (0x12D)
Идентификатор меню : 20101 (0x4E85)
Формат : MPEG Audio
Версия формата : Version 1
Профиль формата : Layer 2
Идентификатор кодека : 3
Продолжительность : 43 м.
Вид битрейта : Постоянный
Битрейт : 192 Кбит/сек
Каналы : 2 канала
Частота : 48,0 КГц
Метод сжатия : С потерями
Размер потока : 60,4 Мбайт (3%)
Язык : Russian
picpicpicpicpic
Для увеличения картинки щелкните мышкой по превью

Этот торрент недоступен для скачивания без регистрации, однако доступен по публичной magnet-ссылке (источники с публичных трекеров). Перед использованием ссылки прочтите, пожалуйста Пользовательское соглашение, а также как можно дольше оставайтесь на раздаче! Для того, чтобы скачать сам торрент-файл (который видит больше источников), а также для того, чтобы поблагодарить релизера, вам необходимо зарегистрироваться. Если регистрироваться лень - вы можете также попробовать скачать релиз по нашим партнерским ссылкам ниже.

[underverse.su].t68062.torrent
Трекер: Зарегистрирован   [ 13.07.2016 16:20 ]  

Статус: проверено (by makkol at 13.07.2016 21:42)
Поблагодарили: 3 человека
Тип торрента: публичный - доступные источники с открытых трекеров: 
Размер: 2,26 GB (занимает 0,52 DVDR, для записи нужно 1 болванка DVDR/RW)
 
 
Похожие темы
Форум Тема Автор Торрент Отв. Посл. сооб.
Зарубежное кино [DVDRip, Low-Res HDRip, и т.д.] Удивительная жизнь учителей / Реальная жизнь учителей / La Vraie vie des profs (Эммануэль Клотц, Альберт Перейра-Лазаро) [2013 г., комедия, HDRip] MVO makkol
23 | 2

0 | 432

5

31.08.2016 14:04

Кино СССР Удивительные приключения Дениса Кораблева (Игорь Пушкарев, Игорь Добролюбов, Виталий Дудин) [1979 г., детский, семейный, DVDRip] 90ytr90
1 | 0

0 | 1629

7

21.10.2013 18:24

National Geographic Удивительные пауки / Incredible spiders [2015 г., документальный, научно-познавательный, HDTVRip 720p] Dub + Original (Eng) ARI71
1 | 0

0 | 996

5

23.05.2016 21:24

National Geographic Удивительные насекомые / Incredible Insects [2015 г., документальный, научно-познавательный, HDTVRip] VO ARI71
30 | 0

0 | 540

4

08.06.2016 09:11

National Geographic Удивительные пауки / Incredible spiders (Джессика Коннелл) [2015 г., документальный, природа, фауна, HDTVRip-AVC] Dub ARI71
8 | 0

0 | 421

1

14.07.2016 18:14

BBC Удивительный мир крови / The Wonderful World of Blood with Michael Mosley [2015 г., документальный, научно-познавательный, HDTVRip 720p] Dub ARI71
2 | 0

0 | 706

10

26.04.2016 10:22

BBC Удивительный мир крови / The Wonderful World of Blood with Michael Mosley [2015 г., документальный, научно-познавательный, HDTVRip] Dub ARI71
0 | 0

0 | 821

2

09.05.2016 15:06

Научно-популярные фильмы Удивительные копатели / Incredible Diggers [2015 г., документальный, флора, фауна, HDTVRip] VO ARI71
9 | 0

0 | 324

1

10.06.2016 12:27

Другие фильмы Удивительные яхты / Extreme Yachts (1 сезон: 1-6 серий из 6) / (Дэнис Зерулл, Энди Робинсон) [2012 г., документальный, инженерия, дизайн, HDTVRip 720p] DVO ARI71
2 | 0

0 | 389

3

23.09.2016 14:27

Зарубежное кино [HDDVDRip / BDRip / WEB-DL / HDTV 1080/720р] Удивительная жизнь учителей / Реальная жизнь учителей / La Vraie vie des profs (Эммануэль Клотц, Альберт Перейра-Лазаро) [2013 г., комедия, BDRip 720p] MVO + Original makkol
15 | 3

0 | 322

0

31.08.2016 14:44


Яндекс.Метрика powered by Sphinx


В Н И М А Н И Е
Сайт не распространяет и не хранит электронные версии произведений, а лишь бесплатно и без коммерческой выгоды (не требуя взамен платы,
SMS и т.д.) предоставляет доступ к создаваемому пользователями каталогу ссылок на торрент-файлы, которые содержат только списки хеш-сумм.
Убедительная просьба с жалобами обращаться напрямую к пользователю, разместившему торрент файл.

Вверх