Loading...
Error

Столкновения с легендарными рыбами. Ловля сома во Франции / Contact, avec des poissons lеgendaires [2010 г., документальный, рыбалка, путешествия, география, TVRip] VO

Статистика раздачи
Размер:  672 MB   |    Зарегистрирован:  4 месяца 27 дней   |    Скачан:  2 раза

Полного источника не было: 3 месяца 12 дней

Сидов:  0  |  0 KB/s  ]   Личеров:  0  |  0 KB/s  ]

* - сиды/пиры с внешних источников

   
 
Автор Сообщение

ARI71 Пол:Муж

13-Июл-2016 14:54

Столкновения с легендарными рыбами. Ловля сома во Франции / Contact, avec des poissons lеgendaires


Год выпуска: 2010
Жанр: документальный, рыбалка, путешествия, география
Страна: Франция Tip Top Productions
В ролях: Франк Ирибарн
Сюжет фильма:
"Контакт!" - слово, которое выкрикивает Франк Ирибарн в момент, когда добывает свой очередной трофей. Герой программы может позволить себе причуды, ведь он страстный любитель рыбалки, который не ищет легких путей. Франк ловит только самую крупную и необычную рыбу на водоёмах по всему миру, посещая Амазонку, Египет, Техас, Тайланд и другие регионы мира. В каждой серии программы Франк ловит новую рыбу - гигантского сома, щуку-маскинонга, реликтовую панцирную щуку, тайменя, тигровую рыбу, нильского окуня и даже гигантского змееголова.

В этой серии программы рыболов-эксперт Франк Ирибарн половит крупного сома во Франции.

Качество видео: TVRip

Продолжительность: 00:59:43
Формат: AVI
Видео: XviD, 720x400, ~1433 kbps
Аудио: русский, одноголосый (профессиональный), MP3 2.0, ~128.00 kbps

Код:

Общее
Полное имя : D:\Столкновения с легендарными рыбами. Ловля сома во Франции.avi
Формат : AVI
Формат/Информация : Audio Video Interleave
Размер файла : 672 Мбайт
Продолжительность : 59 м.
Общий поток : 1574 Кбит/сек
Программа кодирования : Lavf57.25.100

Видео
Идентификатор : 0
Формат : MPEG-4 Visual
Профиль формата : Advanced Simple@L5
Параметр BVOP формата : 1
Параметр QPel формата : Нет
Параметр GMC формата : Без точки перехода
Параметр матрицы формата : Default (H.263)
Идентификатор кодека : XVID
Идентификатор кодека/Подсказка : XviD
Продолжительность : 59 м.
Битрейт : 1433 Кбит/сек
Ширина : 720 пикселей
Высота : 400 пикселей
Соотношение сторон : 16:9
Частота кадров : 25,000 кадров/сек
Цветовое пространство : YUV
Субдискретизация насыщенности : 4:2:0
Битовая глубина : 8 бит
Тип развёртки : Прогрессивная
Метод сжатия : С потерями
Бит/(Пиксели*Кадры) : 0.199
Размер потока : 612 Мбайт (91%)
Библиотека кодирования : XviD 67

Аудио
Идентификатор : 1
Формат : MPEG Audio
Версия формата : Version 1
Профиль формата : Layer 3
Режим : Joint stereo
Расширение режима : MS Stereo
Идентификатор кодека : 55
Идентификатор кодека/Подсказка : MP3
Продолжительность : 59 м.
Вид битрейта : Постоянный
Битрейт : 128 Кбит/сек
Каналы : 2 канала
Частота : 48,0 КГц
Метод сжатия : С потерями
Размер потока : 54,7 Мбайт (8%)
Выравнивание : Соединение по промежуткам
Продолжительность промежутка : 24 мс. (0,60 видеокадр)
Библиотека кодирования : LAME3.99.5ЄЄЄЄЄЄЄЄЄЄ
picpicpicpicpic
Для увеличения картинки щелкните мышкой по превью

Этот торрент недоступен для скачивания без регистрации, однако доступен по публичной magnet-ссылке (источники с публичных трекеров). Перед использованием ссылки прочтите, пожалуйста Пользовательское соглашение, а также как можно дольше оставайтесь на раздаче! Для того, чтобы скачать сам торрент-файл (который видит больше источников), а также для того, чтобы поблагодарить релизера, вам необходимо зарегистрироваться. Если регистрироваться лень - вы можете также попробовать скачать релиз по нашим партнерским ссылкам ниже.

[underverse.su].t68056.torrent
Трекер: Зарегистрирован   [ 13.07.2016 14:54 ]  

Статус: проверено (by makkol at 13.07.2016 15:02)
Поблагодарили: пока никто не поблагодарил...
Тип торрента: публичный - доступные источники с открытых трекеров: 
Размер: 672 MB (занимает 0,15 DVDR, для записи нужно 1 болванка DVDR/RW)
 
 
Похожие темы
Форум Тема Автор Торрент Отв. Посл. сооб.
Зарубежное кино [DVDRip, Low-Res HDRip, и т.д.] Столкновение / Crash (Пол Хэггис) [2004 г., Драма, Криминал, HDRip] [Director's Cut] Dub Mahone
23 | 0

15 | 3226

18

19.11.2013 16:16

Зарубежное кино [DVDRip, Low-Res HDRip, и т.д.] Столкновение / Meteor Storm (Тибор Такач) [2010 г., фантастика, DVDRip] oartemka178
0 | 1

2 | 1999

44

21.11.2010 12:35

Зарубежное кино [DVDRip, Low-Res HDRip, и т.д.] Столкновение / Meteor Apocalypse (Мичо Рутейр) [2010 г., фантастика, приключения, DVDRip] Boromir9
1 | 0

2 | 673

11

21.12.2012 21:07

Зарубежное кино [DVDRip, Low-Res HDRip, и т.д.] Столкновение Земли / Collision Earth (Пол Зиллер) [2011 г., фантастика, боевик, триллер, HDRip] MVO (TB3) 90ytr90
0 | 0

0 | 576

21

21.12.2012 21:11

Зарубежное кино [DVDRip, Low-Res HDRip, и т.д.] Столкновение интересов / Курс на столкновение / Collision Course (Фред Олен Рей) [2013 г., фантастика, триллер, приключения, HDRip] MVO (SDI Media) + Ger 90ytr90
0 | 0

1 | 1208

32

27.07.2013 21:13

Зарубежное кино [DVDRip, Low-Res HDRip, и т.д.] Столкновение интересов / Курс на столкновение / Collision Course (Фред Олен Рей) [2013 г., фантастика, триллер, приключения, BDRip-AVC] MVO (SDI Media) + Original (Eng) 90ytr90
8 | 0

0 | 976

5

27.07.2013 10:38

Зарубежное кино [DVDRip, Low-Res HDRip, и т.д.] Столкновение / Crash (Пол Хаггис / Paul Haggis) [2004 г., драма, BDRip] [Director's Cut] DVO (Гланц и Королева) + Original (Eng) + Sub (Rus, Eng) 90ytr90
1 | 0

0 | 588

11

01.02.2014 16:03

Рыбалка Столкновения с легендарными рыбами. Голиаф из Конго / Contact, avec des poissons lеgendaires (Шарль Валли) [2012 г., документальный, рыбалка, путешествия, TVRip] VO ARI71
0 | 1

1 | 141

0

15.10.2016 09:20

Рыбалка Столкновения с легендарными рыбами. Маскинонг - брат щуки / Contact, avec des poissons lеgendaires [2010 г., документальный, рыбалка, путешествия, география, TVRip] VO ARI71
1 | 1

0 | 643

4

25.07.2016 10:04

Рыбалка Столкновения с легендарными рыбами / Contact, avec des poissons lе gendaires (1-3 серии из 3) [2010 г., документальный, рыбалка, путешествия, география, TVRip] VO ARI71
2 | 1

0 | 937

3

14.06.2016 19:21


Яндекс.Метрика powered by Sphinx


В Н И М А Н И Е
Сайт не распространяет и не хранит электронные версии произведений, а лишь бесплатно и без коммерческой выгоды (не требуя взамен платы,
SMS и т.д.) предоставляет доступ к создаваемому пользователями каталогу ссылок на торрент-файлы, которые содержат только списки хеш-сумм.
Убедительная просьба с жалобами обращаться напрямую к пользователю, разместившему торрент файл.

Вверх