Loading...
Error

Живая Природа. Райские птицы / Natural World. Birds of Paradise (Харви Джонс) [2010 г., документальный, научно-популярный, фауна, флора, SatRip] VO

Статистика раздачи
Размер:  738 MB   |    Зарегистрирован:  4 месяца 21 день   |    Скачан:  2 раза

Полного источника не было: 4 месяца 21 день

Сидов:  0  |  0 KB/s  ]   Личеров:  0  |  0 KB/s  ]

* - сиды/пиры с внешних источников

   
 
Автор Сообщение

ARI71 Пол:Муж

12-Июл-2016 16:45

Живая Природа. Райские птицы / Natural World. Birds of Paradise


Год выпуска: 2010
Жанр: документальный, научно-популярный, фауна, флора
Страна: Великобритания BBC
Режиссер: Харви Джонс
Сюжет фильма:
Эти создания столь прекрасны, что они казались людям спустившимися с небес. Не удивительно, что европейцы, впервые увидев их, посчитали птиц обитателями райского сада Эдема. Этим Эдемом была Новая Гвинея - обитаемый остров, который еще не исследовали европейцы. И поныне эти великолепные создания можно найти только здесь. Речь идет о невиданных птицах. Их красота кажется чрезмерной: такого оперения почти ни у кого не увидишь. А брачные танцы, которые, пожалуй, можно назвать самыми замысловатыми в животном мире, поражают воображение даже сильнее, чем их облик. И хотя эти птицы не из Эдема, они все равно заслуживают название, изначально данное им европейскими учеными - Райские птицы.
Качество видео: SatRip

Продолжительность: 00:51:47
Формат: AVI
Видео: XviD, 704x400, ~1791 kbps
Аудио: русский, одноголосый (профессиональный), MP3 2.0, ~192.00 kbps

Код:

Общее
Полное имя : D:\BBC.Jivaya.priroda.raiskie.ptici.2010.XviD.SATRip.BiNMoViE.avi
Формат : AVI
Формат/Информация : Audio Video Interleave
Размер файла : 738 Мбайт
Продолжительность : 51 м.
Общий поток : 1992 Кбит/сек
Программа кодирования : VirtualDubModRus 1.5.10.2 (build 2542/release)
Библиотека кодирования : VirtualDubMod build 2542/release

Видео
Идентификатор : 0
Формат : MPEG-4 Visual
Профиль формата : Advanced Simple@L5
Параметр BVOP формата : 1
Параметр QPel формата : Нет
Параметр GMC формата : Без точки перехода
Параметр матрицы формата : Выборочная
Идентификатор кодека : XVID
Идентификатор кодека/Подсказка : XviD
Продолжительность : 51 м.
Битрейт : 1791 Кбит/сек
Ширина : 704 пикселя
Высота : 400 пикселей
Соотношение сторон : 16:9
Частота кадров : 25,000 кадров/сек
Цветовое пространство : YUV
Субдискретизация насыщенности : 4:2:0
Битовая глубина : 8 бит
Тип развёртки : Прогрессивная
Метод сжатия : С потерями
Бит/(Пиксели*Кадры) : 0.254
Размер потока : 663 Мбайт (90%)
Библиотека кодирования : XviD 63

Аудио
Идентификатор : 1
Формат : MPEG Audio
Версия формата : Version 1
Профиль формата : Layer 3
Идентификатор кодека : 55
Идентификатор кодека/Подсказка : MP3
Продолжительность : 51 м.
Вид битрейта : Постоянный
Битрейт : 192 Кбит/сек
Каналы : 2 канала
Частота : 48,0 КГц
Метод сжатия : С потерями
Размер потока : 71,1 Мбайт (10%)
Выравнивание : Соединение по промежуткам
Продолжительность промежутка : 40 мс. (1,00 видеокадр)
Время предзагрузки промежутка : 504 мс.
picpicpicpicpic
Для увеличения картинки щелкните мышкой по превью

Этот торрент недоступен для скачивания без регистрации, однако доступен по публичной magnet-ссылке (источники с публичных трекеров). Перед использованием ссылки прочтите, пожалуйста Пользовательское соглашение, а также как можно дольше оставайтесь на раздаче! Для того, чтобы скачать сам торрент-файл (который видит больше источников), а также для того, чтобы поблагодарить релизера, вам необходимо зарегистрироваться. Если регистрироваться лень - вы можете также попробовать скачать релиз по нашим партнерским ссылкам ниже.

[underverse.su].t68015.torrent
Трекер: Зарегистрирован   [ 12.07.2016 16:45 ]  

Статус: проверено (by makkol at 13.07.2016 11:30)
Поблагодарили: пока никто не поблагодарил...
Тип торрента: публичный - доступные источники с открытых трекеров: 
Размер: 738 MB (занимает 0,16 DVDR, для записи нужно 1 болванка DVDR/RW)
 
 

Яндекс.Метрика powered by Sphinx


В Н И М А Н И Е
Сайт не распространяет и не хранит электронные версии произведений, а лишь бесплатно и без коммерческой выгоды (не требуя взамен платы,
SMS и т.д.) предоставляет доступ к создаваемому пользователями каталогу ссылок на торрент-файлы, которые содержат только списки хеш-сумм.
Убедительная просьба с жалобами обращаться напрямую к пользователю, разместившему торрент файл.

Вверх