Loading...
Error

Меня зовут Калам / I Am Kalam (Нила Мадхаб Панда) [2010 г., драма, комедия, DVDRip] VO

Статистика раздачи
Размер:  1,24 GB   |    Зарегистрирован:  4 месяца 22 дня   |    Скачан:  3 раза

Полного источника не было: 4 месяца 2 дня

Сидов:  0  |  0 KB/s  ]   Личеров:  0  |  0 KB/s  ]

* - сиды/пиры с внешних источников

   
 
Автор Сообщение

makkol Пол:Муж

12-Июл-2016 15:22

Меня зовут Калам / I Am Kalam


Год выпуска: 2010
Жанр: драма, комедия
Производство: Индия [Smile Foundation]
Режиссер: Нила Мадхаб Панда
В ролях: Гульшан Гровер, Хэрш Майар, Хуссан Саад, Питобаш Трипати, Беатрис Ордё, Суреш Ачария, Раджат Бхалла, Гарима Бхарадвадж
Сюжет фильма:
Фильм "Меня зовут Калам" – "Золушка" и "Принц и нищий" в одном флаконе на индийский лад. Маленький индийский мальчик Чоту из бедной семьи мечтает получить образование, чтобы самому распоряжаться своей судьбой. Однажды, услышав речь президента Индии доктора Абдула Калама, Чоту решает изменить свое будущее. Так же, как и у Чоту, у президента было трудное детство, однако благодаря упорному труду он многого достиг. Мальчик дает себе слово, что когда-нибудь тоже станет героем, и в честь президента берет себе имя Калам.

  • Мировая премьера: 12 мая 2010


Качество видео: DVDRip

Продолжительность: 01:26:23
Формат: AVI
Видео: XviD, 720x400 (16:9), 29.970 fps, 1850 kbps
Аудио: русский, любительский одноголосый закадровый, MP3 2.0, 48 kHz, 192 kbps

Код:

Формат                                   : AVI
Формат/Информация                        : Audio Video Interleave
Размер файла                             : 1,24 Гбайт
Продолжительность                        : 1 ч. 26 м.
Общий поток                              : 2054 Кбит/сек
Название фильма                          : I am Kalam (2011)
Программа кодирования                    : VirtualDubMod 1.5.10.2 (build 2540/release)
Библиотека кодирования                   : VirtualDubMod build 2540/release
Формат оригинала/Имя                     : I am Kalam (2011) DVD5

Видео
Идентификатор                            : 0
Формат                                   : xvid
Идентификатор кодека                     : xvid
Продолжительность                        : 1 ч. 26 м.
Битрейт                                  : 1850 Кбит/сек
Ширина                                   : 720 пикселей
Высота                                   : 400 пикселей
Соотношение сторон                       : 16:9
Частота кадров                           : 29,970 кадров/сек
Бит/(Пиксели*Кадры)                      : 0.214
Размер потока                            : 1,12 Гбайт (90%)

Аудио
Идентификатор                            : 1
Формат                                   : MPEG Audio
Версия формата                           : Version 1
Профиль формата                          : Layer 3
Режим                                    : Joint stereo
Расширение режима                        : MS Stereo
Идентификатор кодека                     : 55
Идентификатор кодека/Подсказка           : MP3
Продолжительность                        : 1 ч. 26 м.
Вид битрейта                             : Постоянный
Битрейт                                  : 192 Кбит/сек
Каналы                                   : 2 канала
Частота                                  : 48,0 КГц
Метод сжатия                             : С потерями
Размер потока                            : 119 Мбайт (9%)
Выравнивание                             : Соединение по промежуткам
Продолжительность промежутка             : 33  мс. (1,00 видеокадр)
Время предзагрузки промежутка            : 504  мс.
Перевод: prostotak
Озвучивание: Павел Морозов aka PashaUp
Релиз:
picpicpicpicpic
Для увеличения картинки щелкните мышкой по превью

Этот торрент недоступен для скачивания без регистрации, однако доступен по публичной magnet-ссылке (источники с публичных трекеров). Перед использованием ссылки прочтите, пожалуйста Пользовательское соглашение, а также как можно дольше оставайтесь на раздаче! Для того, чтобы скачать сам торрент-файл (который видит больше источников), а также для того, чтобы поблагодарить релизера, вам необходимо зарегистрироваться. Если регистрироваться лень - вы можете также попробовать скачать релиз по нашим партнерским ссылкам ниже.

[underverse.su].t68010.torrent
Трекер: Зарегистрирован   [ 12.07.2016 15:22 ]  

Статус: проверено (by makkol at 14.07.2016 23:44)
Поблагодарили: пока никто не поблагодарил...
Тип торрента: публичный - доступные источники с открытых трекеров: 
Размер: 1,24 GB (занимает 0,28 DVDR, для записи нужно 1 болванка DVDR/RW)
 
 
Похожие темы
Форум Тема Автор Торрент Отв. Посл. сооб.
Зарубежное кино [DVDRip, Low-Res HDRip, и т.д.] Меня зовут Кхан / My Name Is Khan (Каран Джохар / Karan Johar) [2010 г., мелодрама, драма, HDRip] MVO puzzikat
73 | 3

4 | 2381

13

04.01.2014 18:48

Зарубежное кино [DVDRip, Low-Res HDRip, и т.д.] Меня зовут Джиг Робот / Lo chiamavano Jeeg Robot (Габриэль Майнетти) [2015 г., боевик, фантастика, драма, триллер, WEBRip-AVC] VO (BadBajo) + Original (Ita) + Sub (Eng) 90ytr90
506 | 13

0 | 229

18

14.11.2016 13:54

Зарубежное кино [DVDRip, Low-Res HDRip, и т.д.] Меня зовут Джиг Робот / Lo chiamavano Jeeg Robot (Габриэль Майнетти) [2015 г., боевик, фантастика, драма, триллер, HDRip] VO (BadBajo) 90ytr90
551 | 22

0 | 237

9

17.11.2016 04:50

Зарубежное кино [HDDVDRip / BDRip / WEB-DL / HDTV 1080/720р] Меня зовут Джиг Робот / Lo chiamavano Jeeg Robot (Габриэль Майнетти / Gabriele Mainetti) [2015 г., боевик, фантастика, драма, триллер, BDRip 1080p] VO (BadBajo) + Original (Ita) + Sub (Eng, Ita) 90ytr90
52 | 4

0 | 174

4

14.11.2016 14:50

Архив Меня зовут Арлекино (Валерий Рыбарев) [1988 г., драма, TVRip] Werwolf
0 | 0

6 | 1745

4

16.06.2011 08:08


Яндекс.Метрика powered by Sphinx


В Н И М А Н И Е
Сайт не распространяет и не хранит электронные версии произведений, а лишь бесплатно и без коммерческой выгоды (не требуя взамен платы,
SMS и т.д.) предоставляет доступ к создаваемому пользователями каталогу ссылок на торрент-файлы, которые содержат только списки хеш-сумм.
Убедительная просьба с жалобами обращаться напрямую к пользователю, разместившему торрент файл.

Вверх